Subcategories
Tags
Language
Tags

Fred Hess - Single Moment (2008) {Alison SR 115}

Posted By: ruskaval
Fred Hess - Single Moment (2008) {Alison SR 115}

Fred Hess - Single Moment (2008) {Alison SR 115}
EAC rip (secure mode) | FLAC (tracks)+CUE+LOG -> 346 Mb | MP3 @320 -> 144 Mb
Full Artwork @ 300 dpi (jpg) -> 24 Mb | 5% repair rar
© 2008 Alison / FHMusic | SR 115
Jazz / Post Bop / Contemporary Jazz / Saxophone

Tenor saxophonist Fred Hess blew off on a free tangent in 2002 with Exposed (CIMP Records), employing an Ornette Coleman style quartet containing two horns, bass and drums. He followed up on that approach with three excellent Tapestry Records discs, Extended Family (2003), The Long and Short of It (2004), and Crossed Paths (2005), with the latter pair cementing the Ken Filiano (bass), Ron Miles (trumpet) and Matt Wilson (drums) line-up that has carried over to Hess' more recent quintet albums, How 'Bout Now (Tapestry, 2006) and In the Grotto (Alison Records, 2007).

A constant on these sets from the new millennium has been the absence of a chordal instrument. With the release of Single Moment, Hess invites guitarist Dale Bruning into the fold. Bruning lays down a crunchy rhythmic undertone on the opener, the Hess-penned "Blues for Bonnie," a tune that has the saxophonist and the band sounding as cool and in the groove as a jazz group can get. Hess solos, as always, with a mellifluous gusto and a seemingly endless flow of intriguing ideas. This is followed by a beautiful Miles' solo with relative restraint and economy.

Bruning's "Dancing with Daffodils" has the guitarist showing off his crisp, clean, Jim Hall-like chops. "Norman's Gold," another Hess tune, zips along exuberantly, featuring compact soling all around, and "While My Lady Sleeps," from the 1941 movie The Chocolate Soldier, is a laid-back Bruning/Hess duet.

With takes on Rodgers and Harts' "Spring is Here" and a couple of Benny Golson tunes in the mix, it's tempting to say that Hess is leaning back toward the mainstream side of jazz, before he launches into "Return Of The Clefs," in spite of a supposed "Final Chapter?" to the saga on In the Grotto. It's a crazy clan, about as far out of the mainstream as can be, rendered by the band in a madcap mode, with Mrs. Clef— as sung by God knows who—going into histrionics amid the ensemble clamor. It sounds as if a good time was had by all.

The title tune closes the set in a tribute to the late Michael Brecker, and again features tasty and succinct soloing all round.
Fred Hess - Single Moment (2008) {Alison SR 115}


Personnel
Fred Hess: tenor saxophone
Ron Miles: trumpet
John Gunther: flute, alto saxophone
Dale Bruning: guitar
Ken Filiano: bass
Matt Wilson
: drums

Track Listing
01 - Blues for Bonnie Bell
02 - Dancing with Daffodils
03 - Norman's Gold
04 - While My Lady Sleeps
05 - Port O' Call
06 - Thursday's Theme
07 - Out of the Past
08 - Return of the Clefs
09 - Spring is Here
10 - Single Moment

Exact Audio Copy V1.3 from 2. September 2016

EAC extraction logfile from 23. December 2017, 17:05

The Fred Hess Band / Single Moment

Used drive : PLEXTOR DVDR PX-891SAW Adapter: 0 ID: 4

Read mode : Secure
Utilize accurate stream : Yes
Defeat audio cache : Yes
Make use of C2 pointers : No

Read offset correction : 48
Overread into Lead-In and Lead-Out : No
Fill up missing offset samples with silence : Yes
Delete leading and trailing silent blocks : No
Null samples used in CRC calculations : Yes
Used interface : Installed external ASPI interface
Gap handling : Appended to previous track

Used output format : User Defined Encoder
Selected bitrate : 1024 kBit/s
Quality : High
Add ID3 tag : No
Command line compressor : C:\Program Files\eac-1.0beta4\Flac\flac.exe
Additional command line options : -8 -V -T "ARTIST=%artist%" -T "TITLE=%title%" -T "ALBUM=%albumtitle%" -T "DATE=%year%" -T "TRACKNUMBER=%tracknr%" -T "GENRE=%genre%" -T "PERFORMER=%albuminterpret%" -T "COMPOSER=%composer%" %haslyrics%–tag-from-file=LYRICS="%lyricsfile%"%haslyrics% -T "ALBUMARTIST=%albumartist%" -T "ALBUM ARTIST=%albumartist%" -T "DISCNUMBER=%cdnumber%" -T "TOTALDISCS=%totalcds%" -T "TOTALTRACKS=%numtracks%" -T "COMMENT=ivo" %source% -o %dest%


TOC of the extracted CD

Track | Start | Length | Start sector | End sector
––––––––––––––––––––––––––––-
1 | 0:00.00 | 7:33.33 | 0 | 34007
2 | 7:33.33 | 6:21.54 | 34008 | 62636
3 | 13:55.12 | 3:44.66 | 62637 | 79502
4 | 17:40.03 | 4:14.45 | 79503 | 98597
5 | 21:54.48 | 2:58.64 | 98598 | 112011
6 | 24:53.37 | 8:30.24 | 112012 | 150285
7 | 33:23.61 | 5:19.64 | 150286 | 174274
8 | 38:43.50 | 6:06.39 | 174275 | 201763
9 | 44:50.14 | 3:08.12 | 201764 | 215875
10 | 47:58.26 | 12:11.20 | 215876 | 270720


Track 1

Filename F:\igor\eac\01 - Blues for Bonnie Bell.wav

Pre-gap length 0:00:02.00

Peak level 100.0 %
Extraction speed 4.8 X
Track quality 100.0 %
Test CRC 4F006E5A
Copy CRC 4F006E5A
Track not present in AccurateRip database
Copy OK

Track 2

Filename F:\igor\eac\02 - Dancing with Daffodils.wav

Pre-gap length 0:00:00.64

Peak level 100.0 %
Extraction speed 5.5 X
Track quality 100.0 %
Test CRC 4032BEDA
Copy CRC 4032BEDA
Track not present in AccurateRip database
Copy OK

Track 3

Filename F:\igor\eac\03 - Norman's Gold.wav

Pre-gap length 0:00:01.65

Peak level 100.0 %
Extraction speed 5.7 X
Track quality 100.0 %
Test CRC 331401B4
Copy CRC 331401B4
Track not present in AccurateRip database
Copy OK

Track 4

Filename F:\igor\eac\04 - While My Lady Sleeps.wav

Pre-gap length 0:00:01.52

Peak level 100.0 %
Extraction speed 4.4 X
Track quality 99.9 %
Test CRC 796CFA80
Copy CRC 796CFA80
Track not present in AccurateRip database
Copy OK

Track 5

Filename F:\igor\eac\05 - Port O' Call.wav

Peak level 100.0 %
Extraction speed 6.1 X
Track quality 100.0 %
Test CRC 22F1EA9F
Copy CRC 22F1EA9F
Track not present in AccurateRip database
Copy OK

Track 6

Filename F:\igor\eac\06 - Thursday's Theme.wav

Pre-gap length 0:00:01.01

Peak level 100.0 %
Extraction speed 7.2 X
Track quality 100.0 %
Test CRC C7C03B2A
Copy CRC C7C03B2A
Track not present in AccurateRip database
Copy OK

Track 7

Filename F:\igor\eac\07 - Out of the Past.wav

Pre-gap length 0:00:01.09

Peak level 100.0 %
Extraction speed 7.4 X
Track quality 100.0 %
Test CRC E9BE0143
Copy CRC E9BE0143
Track not present in AccurateRip database
Copy OK

Track 8

Filename F:\igor\eac\08 - Return of the Clefs.wav

Peak level 100.0 %
Extraction speed 6.1 X
Track quality 99.9 %
Test CRC E706FD76
Copy CRC E706FD76
Track not present in AccurateRip database
Copy OK

Track 9

Filename F:\igor\eac\09 - Spring is Here.wav

Pre-gap length 0:00:00.54

Peak level 100.0 %
Extraction speed 7.6 X
Track quality 100.0 %
Test CRC 35328210
Copy CRC 35328210
Track not present in AccurateRip database
Copy OK

Track 10

Filename F:\igor\eac\10 - Single Moment.wav

Pre-gap length 0:00:01.28

Peak level 100.0 %
Extraction speed 8.8 X
Track quality 100.0 %
Test CRC 8B57FE61
Copy CRC 8B57FE61
Track not present in AccurateRip database
Copy OK


None of the tracks are present in the AccurateRip database

No errors occurred

End of status report

–– CUETools DB Plugin V2.1.6

[CTDB TOCID: k1biJR.e48KuYKzd6m5D7RIFiWY-] found
Submit result: k1biJR.e48KuYKzd6m5D7RIFiWY- has been confirmed
Track | CTDB Status
1 | (1/1) Accurately ripped
2 | (1/1) Accurately ripped
3 | (1/1) Accurately ripped
4 | (1/1) Accurately ripped
5 | (1/1) Accurately ripped
6 | (1/1) Accurately ripped
7 | (1/1) Accurately ripped
8 | (1/1) Accurately ripped
9 | (1/1) Accurately ripped
10 | (1/1) Accurately ripped


==== Log checksum 4B1A3004652F7F33A7DF33004727E0DD86DE6556DE80431FF6A9D86094947D20 ====


Fred Hess - Single Moment (2008) {Alison SR 115}

Fred Hess - Single Moment (2008) {Alison SR 115}


see more Fred Hess…


===