Tags
Language
Tags

Fundació Música Contemporània – Joan Guinjoan (2000)

Posted By: d'Avignon
Fundació Música Contemporània – Joan Guinjoan (2000)

Fundació Música Contemporània – Joan Guinjoan (2000)
Classical/Contemporary | FLAC lossless | cuesheets+log | covers+booklet | 75m40s | 288mb
Label: Emec | cat. no. E-035


This record contains an interesting selection of the musical work of Joan Guinjoan - without doubt one of the most significant figures among modern Spanish composers– consisting of four works which are obviously divisible into two pairs. On the one hand, "Acta est fabula" and "El Diari" correspond to the mid-seventies and show how Guinjoan approached different forms of "open music", giving precedence, in both cases, to the voice. On the other hand, we have two works separated in time from the first pair by a space of fifteen years (they correspond to the end of the eighties and the beginning of the nineties). They are linked both in terms of aesthetic - much closer than the others, apparently at least, to the musical tradition - and of form, since both are concertos, for bassoon (with ensemble) and guitar (with orchestra) respectively. Thus, two double sides of one creative talent. Both pairs of scores perfectly represent Joan Guinjoan, and together, this collection of four compositions is practically a portrait of the artist.

Tracks:

01. El diari (1977) [0:14:27.22]
02. Concierto para guitarra y orquesta (1990) I Agitato [0:13:39.38]
03. Concierto para guitarra y orquesta (1990) II Moderato, giocoso [0:14:28.98]
04. Concierto para fagot y conjunto instrumental (1978) [0:15:55.74]
05. Acta est fabula (1975) [0:17:09.21]

Performers:

Grupo Circulo – José Luis Temes
Anna Ricci – mezzo-soprano
English Chamber Orchestra – Edmon Colomer
Ignacio Rodes – guitar
Dominique Deguines – fagot
Jean Pierre Dupuy – tape
Grupo Koan – Jose Ramón Encinar

Exact Audio Copy V1.0 beta 3 from 29. August 2011

EAC extraction logfile from 11. May 2016, 21:20

Guinjoan / Compositores de hoy

Used drive : TSSTcorpCDDVDW SH-216AB Adapter: 0 ID: 0

Read mode : Secure
Utilize accurate stream : Yes
Defeat audio cache : Yes
Make use of C2 pointers : No

Read offset correction : 6
Overread into Lead-In and Lead-Out : No
Fill up missing offset samples with silence : Yes
Delete leading and trailing silent blocks : No
Null samples used in CRC calculations : Yes
Used interface : Native Win32 interface for Win NT & 2000
Gap handling : Appended to previous track

Used output format : User Defined Encoder
Selected bitrate : 768 kBit/s
Quality : High
Add ID3 tag : No
Command line compressor : C:\Program Files (x86)\FLAC Frontend\tools\flac.exe
Additional command line options : -8 -V -T "ARTIST=%artist%" -T "TITLE=%title%" -T "ALBUM=%albumtitle%" -T "DATE=%year%" -T "TRACKNUMBER=%tracknr%" -T "GENRE=%genre%" -T "PERFORMER=%albuminterpret%" -T "COMPOSER=%composer%" %haslyrics%–tag-from-file=LYRICS="%lyricsfile%"%haslyrics% -T "ALBUMARTIST=%albumartist%" -T "DISCNUMBER=%cdnumber%" -T "TOTALDISCS=%totalcds%" -T "TOTALTRACKS=%numtracks%" -T "COMMENT=%comment%" %source% -o %dest%


TOC of the extracted CD

Track | Start | Length | Start sector | End sector
––––––––––––––––––––––––––––-
1 | 0:00.00 | 14:27.17 | 0 | 65041
2 | 14:27.17 | 13:39.29 | 65042 | 126495
3 | 28:06.46 | 14:28.74 | 126496 | 191669
4 | 42:35.45 | 15:55.56 | 191670 | 263350
5 | 58:31.26 | 17:09.16 | 263351 | 340541


Track 1

Filename H:\Users\astarte\03. POST\Guinjoan, Joan\01 El diari (1977).wav

Pre-gap length 0:00:02.00

Peak level 97.3 %
Extraction speed 6.1 X
Track quality 100.0 %
Copy CRC EA4846F1
Track not present in AccurateRip database
Copy OK

Track 2

Filename H:\Users\astarte\03. POST\Guinjoan, Joan\02 Concierto para guitarra y orquesta (1990) I Agitato.wav

Peak level 93.9 %
Extraction speed 7.1 X
Track quality 99.9 %
Copy CRC 75E8D760
Track not present in AccurateRip database
Copy OK

Track 3

Filename H:\Users\astarte\03. POST\Guinjoan, Joan\03 Concierto para guitarra y orquesta (1990) II Moderato, giocoso.wav

Peak level 99.5 %
Extraction speed 8.7 X
Track quality 100.0 %
Copy CRC D5A0869F
Track not present in AccurateRip database
Copy OK

Track 4

Filename H:\Users\astarte\03. POST\Guinjoan, Joan\04 Concierto para fagot y conjunto instrumental (1978).wav

Peak level 90.8 %
Extraction speed 10.0 X
Track quality 100.0 %
Copy CRC A3F2AC03
Track not present in AccurateRip database
Copy OK

Track 5

Filename H:\Users\astarte\03. POST\Guinjoan, Joan\05 Acta est fabula (1975).wav

Peak level 54.8 %
Extraction speed 10.4 X
Track quality 99.9 %
Copy CRC 0160BA69
Track not present in AccurateRip database
Copy OK


None of the tracks are present in the AccurateRip database

No errors occurred

End of status report

==== Log checksum 5745E7C4FA150B47C0D84B38D5E222897470F083E59ABE48091296AB29F8E475 ====