Subcategories

Domenico Gallo - 12 Trio Sonatas (Originally attributed to Pergolesi) - Parnassi musici

Posted By: zamorna
Domenico Gallo - 12 Trio Sonatas (Originally attributed to Pergolesi) - Parnassi musici

Domenico Gallo - 12 Trio Sonatas (Originally attributed to Pergolesi)
Classical | 1 CD | EAC | FLAC, CUE, LOG | Scans | 429 MB | RS
Recorded: 22+23/2, 28+30/6 1999, Hans Rosbaud Studio, Baden-Baden
Released: 2000 | Label: cpo 999 717 | TT: 68:50

Parnassi Musici (Margaret MacDuffie, Matthias Fischer - violin,
Stephan Schrader - cello, Martin Lutz - harpsichord)

Domenico Gallo - 12 Trio Sonatas (Originally attributed to Pergolesi) - Parnassi musici

How intriguing it is to press play on this seemingly obscure Baroque collection and be confronted by the Overture to Stravinsky's Pulcinella! The reason for this is the result of a deliberate misattribution perpetrated in London around 1780. There was published Twelve Sonatas for two Violins and a Bass or an Orchestra compos'd by Gio. Batt.a Pergolese [Giovanni Battista Pergolesi]. Author of the Stabat mater. The collection went through three editions by 1795, its success due in part to Pergolesi's popularity (he died in 1736 at the age of 26; his Stabat Mater was first published, in London, in 1749), but also to the evident quality of the music. The collection is not unique, Robert King estimates that of the 148 items published in the Opera omnia of Pergolesi (Rome, 1939-42), only 30 may be considered genuine.

As early as 1789, Charles Burney, an English scholar, raised doubts about the sonatas' provenance; however, it was not until the 1950's that it was firmly established that Pergolesi was not the author and that Domenico Gallo was. In the interim, in 1919, Igor Stravinsky accepted Serge Diaghilev's commission to score a ballet, entitled Pulcinella after a stock character from Neapolitan comedy, with music adapted from Pergolesi's canon. Unwittingly, he wound up setting seven movements from Gallo's sonatas, including using the opening movement of the Sonata No. 1 as his Overture and the concluding movement of Sonata No. 12 as the Finale.

Gallo appears to have been born in 1730 in Venice, where he worked as a violinist and composer. There was a family of musicians named Gallo based in Naples, Pergolesi's birthplace, and it is possible that Domenico was connected to them. The Trio Sonatas were probably written between 1750 and 1770, a period of transition between the Baroque and classical eras. Like most early classical sonatas, they contain three movements (fast - slow - fast); however, the development of these movements tends to be simple and straightforward, with most sonatas containing a fugue movement. What elevates them, and what made the Pergolesi attribution creditable, are the strong memorable themes. Just the thing to provide Stravinsky with fodder for his neo-classical machinations.

The playing of the period instrument group Parnassi musici is elegant, tuneful and exhibits a splendid lightness of touch. This is music to delight rather than astound, and, along with compositions by Bach's sons, gives an aural snapshot of the moment when the formality of the Baroque period gave way to classical exuberance. (Tony Gualtieri, classical-music-review.org)
Gallo shows much of his best stuff in his slow movements–and so do the performers, who demonstrate their facility in bringing out the music's emotional core. Good examples are the slow movements of No. 2 in B-flat, No. 3 in C minor, and the very Bach-like No. 6 in D major for which, unfortunately, you'll have to do a little searching because each work is served by only one track number. Throughout, the playing is stylish and full of personality, buoyed by unfaltering technical confidence and assured ensemble interaction. The sound is intimate, warm, and resonant. It's not Bach; it's not even Pergolesi. But it's well worth a place in your CD collection, especially as this set contains pieces you won't find anywhere else. Perhaps Parnassi musici and/or other musicians will be motivated to explore and record the many other works by Gallo that remain unpublished and unperformed. (David Vernier, ClassicsToday.com)

Tracklist:

01 Sonata No 1 in G major
02 Sonata No 2 in B flat major
03 Sonata No 3 in C minor
04 Sonata No 4 in G major
05 Sonata No 5 in C major
06 Sonata No 6 in D major
07 Sonata No 7 in G minor
08 Sonata No 8 in E flat major
09 Sonata No 9 in A major
10 Sonata No 10 in F major
11 Sonata No 11 in D minor
12 Sonata No 12 in E major


Exact Audio Copy V0.99 prebeta 5 from 4. May 2009

EAC extraction logfile from 23. December 2009, 14:50

Gallo, Domenico / 12 Trio Sonatas

Used drive : HL-DT-STDVDRAM GSA-T50N Adapter: 0 ID: 1

Read mode : Secure
Utilize accurate stream : Yes
Defeat audio cache : Yes
Make use of C2 pointers : No

Read offset correction : 667
Overread into Lead-In and Lead-Out : No
Fill up missing offset samples with silence : Yes
Delete leading and trailing silent blocks : No
Null samples used in CRC calculations : Yes
Used interface : Native Win32 interface for Win NT & 2000

Used output format : User Defined Encoder
Selected bitrate : 1024 kBit/s
Quality : High
Add ID3 tag : No
Command line compressor : C:\Program Files\Exact Audio Copy\FLAC\FLAC.EXE
Additional command line options : -6 -V -T "ARTIST=%a" -T "TITLE=%t" -T "ALBUM=%g" -T "DATE=%y" -T "TRACKNUMBER=%n" -T "GENRE=%m" -T "COMMENT=%e" %s -o %d


TOC of the extracted CD

Track | Start | Length | Start sector | End sector
––––––––––––––––––––––––––––-
1 | 0:00.32 | 5:45.40 | 32 | 25946
2 | 5:45.72 | 6:18.35 | 25947 | 54331
3 | 12:04.32 | 5:22.60 | 54332 | 78541
4 | 17:27.17 | 6:26.08 | 78542 | 107499
5 | 23:53.25 | 6:23.55 | 107500 | 136279
6 | 30:17.05 | 5:21.17 | 136280 | 160371
7 | 35:38.22 | 6:34.55 | 160372 | 189976
8 | 42:13.02 | 6:02.65 | 189977 | 217191
9 | 48:15.67 | 5:18.05 | 217192 | 241046
10 | 53:33.72 | 5:04.53 | 241047 | 263899
11 | 58:38.50 | 5:03.17 | 263900 | 286641
12 | 63:41.67 | 5:17.43 | 286642 | 310459


Range status and errors

Selected range

Filename C:\Gallo, Domenico - 12 Trio Sonatas.wav

Peak level 100.0 %
Range quality 100.0 %
Test CRC C1ADB4FE
Copy CRC C1ADB4FE
Copy OK

No errors occurred


AccurateRip summary

Track 1 accurately ripped (confidence 1) [16ABD2C7]
Track 2 accurately ripped (confidence 1) [C21C5264]
Track 3 accurately ripped (confidence 1) [A564E2D4]
Track 4 accurately ripped (confidence 1) [CEBC7943]
Track 5 accurately ripped (confidence 1) [7006B173]
Track 6 accurately ripped (confidence 1) [90F0205D]
Track 7 accurately ripped (confidence 1) [9BE1C3E0]
Track 8 accurately ripped (confidence 1) [61770F49]
Track 9 accurately ripped (confidence 1) [6DA49429]
Track 10 accurately ripped (confidence 1) [DE921756]
Track 11 accurately ripped (confidence 1) [56C16D7F]
Track 12 accurately ripped (confidence 1) [2A0C2AFF]

All tracks accurately ripped

End of status report



Rapidshare Links