Tags
Language
Tags

Gary Burton - Dreams So Real (1975) {ECM 1072}

Posted By: ruskaval
Gary Burton - Dreams So Real (1975) {ECM 1072}

Gary Burton - Dreams So Real (1975) {ECM 1072}
EAC rip (secure mode) | FLAC (tracks)+CUE+LOG -> 222 Mb | MP3 @320 -> 92 Mb
Full Artwork @ 300 dpi (jpg) -> 12 Mb | 5% repair rar
© 1975 ECM Records | ECM 1072 / 833 329-2
Jazz / Post Bop / Vibes

Performing the intricate music of Carla Bley is no mean feat, but if anyone is up for the challenge, it would be vibraphonist Gary Burton. Signifying a high watermark in his career in the mid-'70s, Dreams So Real teams Burton with his fellow professor at the Berklee College of Music Mick Goodrick, along with recently graduated student Pat Metheny. Add the peerless electric bass guitarist Steve Swallow and always proficient drummer Bob Moses, and you have the makings of a short-lived supergroup capable of playing Bley's memorable, melancholy music.

While generally regarded as one of many Burton/Metheny pairings, it is Goodrick's individualism (it was he who primarily tutored Metheny) that needs more recognition. With Goodrick on electric six-string and Metheny on electric 12-string guitar, the sonorities they establish allow Burton to freely discourse on Bley's prickly angular melodies. The brittle and fractured combo track "Ictus/Syndrome" – closer to a three-piece suite – goes from a frantic neo-bop meter to straight-ahead swing with a clearly inspired Burton rambling into the bright signature rondo sound that Metheny and Swallow have always owned. "Syndrome" might also be familiar to Bley's fans as "Wrong Key Donkey." "Doctor" merges the vibes and guitars into a guided prognosis of hypertension within slowly elevated blood pressure levels. "Intermission Music," inspired by golden age films, is a beautiful waltz vehicle for the guitars rhythmically, and for Swallow and Moses melodically. With the bandmembers at their most passionate, the title track is a lighthearted but cerebral ballad, "Vox Humana" a simplified tango, while "Jesus Maria" evokes the delicate epic strains of Bley's personalized sound with Burton playing it alone. While the singing sound of Metheny is in its infant stages, it is easily recognizable and clearly realized. Generally regarded as one of Burton's top three recorded dates, it has stood the test of time. Perhaps some day, a complete collection of the vibist playing Carla Bley's many other compositions can be compiled to complement this surface-scratching but very important album.
Gary Burton - Dreams So Real (1975) {ECM 1072}


Personnel
Gary Burton vibraphone
Mick Goodrick guitar
Pat Metheny electric 12-string guitar
Steve Swallow bass
Bob Moses drums

Recorded December 1975, Tonstudio Bauer, Ludwigsburg
Engineer: Martin Wieland
Produced by Manfred Eicher


Tracks
1. Dreams So Real
2. Ictus Syndrome
3. Jesus Maria
4. Vox Humana
5. Doctor
6. Intermission Music

EAC extraction logfile from 23. August 2007, 23:06 for CD
Gary Burton / Dreams So Real

Used drive : PLEXTOR DVDR PX-716A Adapter: 2 ID: 0
Read mode : Secure with NO C2, accurate stream, disable cache
Read offset correction : 30
Overread into Lead-In and Lead-Out : No

Used output format : C:\Programmi\Exact Audio Copy\flac-1.1.2-win\bin\flac.exe (User Defined Encoder)
32 kBit/s
Additional command line options : -8 -V %s

Other options :
Fill up missing offset samples with silence : Yes
Delete leading and trailing silent blocks : No
Installed external ASPI interface


Track 1
Filename F:\[MyRip]\01 - Dreams So Real.wav

Pre-gap length 0:00:02.33

Peak level 66.7 %
Track quality 100.0 %
Test CRC 7239A715
Copy CRC 7239A715
Copy OK

Track 2
Filename F:\[MyRip]\02 - Ictus Syndrome.wav

Pre-gap length 0:00:05.28

Peak level 82.9 %
Track quality 100.0 %
Test CRC D8A7A39C
Copy CRC D8A7A39C
Copy OK

Track 3
Filename F:\[MyRip]\03 - Jesus Maria.wav

Pre-gap length 0:00:03.70

Peak level 54.9 %
Track quality 100.0 %
Test CRC AEB3CF74
Copy CRC AEB3CF74
Copy OK

Track 4
Filename F:\[MyRip]\04 - Vox Humana.wav

Pre-gap length 0:00:05.05

Peak level 79.4 %
Track quality 100.0 %
Test CRC C7966B61
Copy CRC C7966B61
Copy OK

Track 5
Filename F:\[MyRip]\05 - Doctor.wav

Pre-gap length 0:00:04.00

Peak level 77.1 %
Track quality 100.0 %
Test CRC 982DF75C
Copy CRC 982DF75C
Copy OK

Track 6
Filename F:\[MyRip]\06 - Intermission Music.wav

Pre-gap length 0:00:04.12

Peak level 80.4 %
Track quality 100.0 %
Test CRC 93B00A1D
Copy CRC 93B00A1D
Copy OK

No errors occured


End of status report

––––––––––––––––––––––––––––––

EAC extraction logfile from 23. August 2007, 23:06 for CD
Gary Burton / Dreams So Real

Used drive : PLEXTOR DVDR PX-716A Adapter: 2 ID: 0
Read mode : Secure with NO C2, accurate stream, disable cache
Read offset correction : 30
Overread into Lead-In and Lead-Out : No

Used output format : C:\Programmi\Exact Audio Copy\flac-1.1.2-win\bin\flac.exe (User Defined Encoder)
32 kBit/s
Additional command line options : -8 -V %s

Other options :
Fill up missing offset samples with silence : Yes
Delete leading and trailing silent blocks : No
Installed external ASPI interface


Track 1
Filename F:\[MyRip]\01 - Dreams So Real.wav

Pre-gap length 0:00:02.33

Peak level 66.7 %
Track quality 100.0 %
Test CRC 7239A715
Copy CRC 7239A715
Copy OK

Track 2
Filename F:\[MyRip]\02 - Ictus Syndrome.wav

Pre-gap length 0:00:05.28

Peak level 82.9 %
Track quality 100.0 %
Test CRC D8A7A39C
Copy CRC D8A7A39C
Copy OK

Track 3
Filename F:\[MyRip]\03 - Jesus Maria.wav

Pre-gap length 0:00:03.70

Peak level 54.9 %
Track quality 100.0 %
Test CRC AEB3CF74
Copy CRC AEB3CF74
Copy OK

Track 4
Filename F:\[MyRip]\04 - Vox Humana.wav

Pre-gap length 0:00:05.05

Peak level 79.4 %
Track quality 100.0 %
Test CRC C7966B61
Copy CRC C7966B61
Copy OK

Track 5
Filename F:\[MyRip]\05 - Doctor.wav

Pre-gap length 0:00:04.00

Peak level 77.1 %
Track quality 100.0 %
Test CRC 982DF75C
Copy CRC 982DF75C
Copy OK

Track 6
Filename F:\[MyRip]\06 - Intermission Music.wav

Pre-gap length 0:00:04.12

Peak level 80.4 %
Track quality 100.0 %
Test CRC 93B00A1D
Copy CRC 93B00A1D
Copy OK

No errors occured


End of status report


Gary Burton - Dreams So Real (1975) {ECM 1072}

Gary Burton - Dreams So Real (1975) {ECM 1072}



===