Subcategories

Stan Getz & Gerry Mulligan - Getz Meets Mulligan In Hi-Fi (1957) {Verve--DCC Jazz, GZS-1074 rel 1995}

Posted By: ruskaval
Stan Getz & Gerry Mulligan - Getz Meets Mulligan In Hi-Fi (1957) {Verve--DCC Jazz, GZS-1074 rel 1995}

Stan Getz & Gerry Mulligan - Getz Meets Mulligan In Hi-Fi (1957) {Verve–DCC Jazz, GZS-1074 rel 1995}
EAC rip (secure mode) | FLAC (tracks)+CUE+LOG -> 282 Mb | MP3 @320 -> 131 Mb
Full Artwork @ 300 dpi (png) -> 31 Mb | 5% repair rar
© 1957, 1995 Verve / DCC Jazz | GZS-1074 | Mono | 24-Gold
Jazz / Cool / West Coast Jazz / Saxophone

This release presents the complete album Getz Meets Mulligan on HI-FI, including the two last tunes from the session, originally issued on another LP Getz and Mulliogan's only collaboration ever in a quintet format. The trade horns on the album's first three tracks, allowing the listener the rare opportunuty to hear Getz on baritone and Mulligan on tenor.
In the original liner notes, producer Norman Granz states that he was interested in the results of a front-line collaboration between saxophonists Stan Getz and Gerry Mulligan.
He also commented that this was the first time they recorded together as the primary horns of a session. Even though this project proved very successful musically and both musicians had known each other long before it was recorded, they would never again play together in this format (at least on records).
Stan Getz & Gerry Mulligan - Getz Meets Mulligan In Hi-Fi (1957) {Verve--DCC Jazz, GZS-1074 rel 1995}


PERSONNEL:

STAN GETZ, tenor sax (baritone sax on 1-3)
GERRY MULLIGAN, baritone sax (tenor sax on 1-3)
LOU LEVY, piano
RAY BROWN, bass
STAN LEVEY, drums

Los Angeles, October 12, 1957.

TRACKLISTING:

01 LET'S FALL IN LOVE 6:29
02 ANYTHING GOES 3:39
03 TOO CLOSE FOR COMFORT 6:58
04 THAT OLD FEELING 5:59
05 THIS CAN'T BE LOVE 8:48
06 A BALLAD 5:46
07 SCRAPPLE FROM THE APPLE 8:09
08 I DIDN'T KNOW WHAT TIME IT WAS 8:59

Exact Audio Copy V0.99 prebeta 4 from 23. January 2008

EAC extraction logfile from 22. September 2008, 0:41

Gerry Mulligan & Stan Getz / Getz Meets Mulligan In Hi-Fi

Used drive : LITE-ON DVDRW LH-20A1H Adapter: 1 ID: 0

Read mode : Secure
Utilize accurate stream : Yes
Defeat audio cache : Yes
Make use of C2 pointers : No

Read offset correction : 6
Overread into Lead-In and Lead-Out : No
Fill up missing offset samples with silence : Yes
Delete leading and trailing silent blocks : No
Null samples used in CRC calculations : Yes
Used interface : Native Win32 interface for Win NT & 2000
Gap handling : Appended to previous track

Used output format : User Defined Encoder
Selected bitrate : 1024 kBit/s
Quality : High
Add ID3 tag : No
Command line compressor : C:\Program Files\FLAC 1.2.1b\flac.exe
Additional command line options : -8 -V -T "ARTIST=%a" -T "TITLE=%t" -T "ALBUM=%g" -T "DATE=%y" -T "TRACKNUMBER=%n" -T "GENRE=%m" -T "COMMENT=EAC FLAC -8" %s


TOC of the extracted CD

Track | Start | Length | Start sector | End sector
––––––––––––––––––––––––––––-
1 | 0:00.00 | 6:31.38 | 0 | 29362
2 | 6:31.38 | 3:39.50 | 29363 | 45837
3 | 10:11.13 | 6:59.50 | 45838 | 77312
4 | 17:10.63 | 5:59.72 | 77313 | 104309
5 | 23:10.60 | 8:49.35 | 104310 | 144019
6 | 32:00.20 | 5:52.00 | 144020 | 170419
7 | 37:52.20 | 8:10.00 | 170420 | 207169
8 | 46:02.20 | 9:00.43 | 207170 | 247712


Track 1

Filename Q:\L10\Stan Getz & Gerry Mulligan - Getz Meets Mulligan In Hi-Fi (1957) [FLAC] (1995 DCC GZS 1074)\01 - Let's Fall In Love.wav

Pre-gap length 0:00:02.00

Peak level 97.4 %
Track quality 99.9 %
Test CRC 53FC6B51
Copy CRC 53FC6B51
Track not present in AccurateRip database
Copy OK

Track 2

Filename Q:\L10\Stan Getz & Gerry Mulligan - Getz Meets Mulligan In Hi-Fi (1957) [FLAC] (1995 DCC GZS 1074)\02 - Anything Goes.wav

Pre-gap length 0:00:03.10

Peak level 100.0 %
Track quality 100.0 %
Test CRC C91D4606
Copy CRC C91D4606
Track not present in AccurateRip database
Copy OK

Track 3

Filename Q:\L10\Stan Getz & Gerry Mulligan - Getz Meets Mulligan In Hi-Fi (1957) [FLAC] (1995 DCC GZS 1074)\03 - Too Close For Comfort.wav

Pre-gap length 0:00:02.84

Peak level 99.7 %
Track quality 100.0 %
Test CRC 8E64E4D8
Copy CRC 8E64E4D8
Track not present in AccurateRip database
Copy OK

Track 4

Filename Q:\L10\Stan Getz & Gerry Mulligan - Getz Meets Mulligan In Hi-Fi (1957) [FLAC] (1995 DCC GZS 1074)\04 - That Old Feeling.wav

Pre-gap length 0:00:03.17

Peak level 100.0 %
Track quality 99.9 %
Test CRC E80AE639
Copy CRC E80AE639
Track not present in AccurateRip database
Copy OK

Track 5

Filename Q:\L10\Stan Getz & Gerry Mulligan - Getz Meets Mulligan In Hi-Fi (1957) [FLAC] (1995 DCC GZS 1074)\05 - This Can't Be Love.wav

Pre-gap length 0:00:03.42

Peak level 100.0 %
Track quality 100.0 %
Test CRC 3C409397
Copy CRC 3C409397
Track not present in AccurateRip database
Copy OK

Track 6

Filename Q:\L10\Stan Getz & Gerry Mulligan - Getz Meets Mulligan In Hi-Fi (1957) [FLAC] (1995 DCC GZS 1074)\06 - A Ballad.wav

Pre-gap length 0:00:03.13

Peak level 80.7 %
Track quality 99.9 %
Test CRC CA640F04
Copy CRC CA640F04
Track not present in AccurateRip database
Copy OK

Track 7

Filename Q:\L10\Stan Getz & Gerry Mulligan - Getz Meets Mulligan In Hi-Fi (1957) [FLAC] (1995 DCC GZS 1074)\07 - Scrapple From The Apple.wav

Pre-gap length 0:00:08.33

Peak level 100.0 %
Track quality 100.0 %
Test CRC 3E540672
Copy CRC 3E540672
Track not present in AccurateRip database
Copy OK

Track 8

Filename Q:\L10\Stan Getz & Gerry Mulligan - Getz Meets Mulligan In Hi-Fi (1957) [FLAC] (1995 DCC GZS 1074)\08 - I Didn't Know What Time It Was.wav

Pre-gap length 0:00:03.16

Peak level 100.0 %
Track quality 100.0 %
Test CRC 3545A4AD
Copy CRC 3545A4AD
Track not present in AccurateRip database
Copy OK


None of the tracks are present in the AccurateRip database

No errors occurred

End of status report


Stan Getz & Gerry Mulligan - Getz Meets Mulligan In Hi-Fi (1957) {Verve--DCC Jazz, GZS-1074 rel 1995}

Stan Getz & Gerry Mulligan - Getz Meets Mulligan In Hi-Fi (1957) {Verve--DCC Jazz, GZS-1074 rel 1995}



===