Subcategories

Goatsnake - I + Dog Days (2004)

Posted By: Necromandus
Goatsnake - I + Dog Days (2004)

Goatsnake - I + Dog Days (2004)
EAC Rip | WV, IMG+CUE+LOG | 535 MB | MP3 CBR 320 Kbps | 185 MB | Covers (incuded) - 6 MB
Stoner Rock/Doom Metal | Label: Southern Lord | Catalog Number: sunn34 | RAR 3% Rec. | RS.com
Reissue of the 1999 debut 'I' and the 2000 EP 'Dog Days'

"Reissue of the 1999 debut I and the 2000 EP Dog Days from LA's Goatsnake, which featured members of Wool, Obsessed and Thorr’s Hammer and have gone on to be in Earthlings? and Sunn0))). All tracks were recorded between 1997-1999 and provide an exciting look at this influential band in its formative stage. Includes all tracks from aforementioned releases plus two tracks from limited, vinyl-only releases.

~ StonerRock.com
Tracklist:
1. Slippin' the Stealth - 3:16
2. Innocent - 3:32
3. What Love Remains - 6:50
4. IV - 4:31
5. Mower - 6:06
6. Dog Catcher - 2:32
7. Lord of Los Feliz - 5:06
8. Trower - 4:56
9. The Orphan - 5:03
10. Long Gone - 2:51
11. Heartbreaker - 6:39
12. Raw Curtains - 7:29
13. Man of Light - 4:17
14. Who Are You (bonus track) - 8:26
15. Knucklebuster (bonus track) - 5:04

Exact Audio Copy V0.99 prebeta 4 from 23. January 2008

EAC extraction logfile from 9. June 2009, 12:06

Goatsnake / I + Dog Days

Used drive : SONY DVD RW AW-G170A Adapter: 0 ID: 0

Read mode : Secure
Utilize accurate stream : Yes
Defeat audio cache : Yes
Make use of C2 pointers : No

Read offset correction : 48
Overread into Lead-In and Lead-Out : No
Fill up missing offset samples with silence : Yes
Delete leading and trailing silent blocks : No
Null samples used in CRC calculations : Yes
Used interface : Installed external ASPI interface

Used output format : Internal WAV Routines
Sample format : 44.100 Hz; 16 Bit; Stereo


TOC of the extracted CD

Track | Start | Length | Start sector | End sector
––––––––––––––––––––––––––––-
1 | 0:00.00 | 3:16.22 | 0 | 14721
2 | 3:16.22 | 3:32.15 | 14722 | 30636
3 | 6:48.37 | 6:50.30 | 30637 | 61416
4 | 13:38.67 | 4:31.25 | 61417 | 81766
5 | 18:10.17 | 6:05.40 | 81767 | 109181
6 | 24:15.57 | 2:32.23 | 109182 | 120604
7 | 26:48.05 | 5:06.02 | 120605 | 143556
8 | 31:54.07 | 4:56.23 | 143557 | 165779
9 | 36:50.30 | 5:02.67 | 165780 | 188496
10 | 41:53.22 | 2:50.55 | 188497 | 201301
11 | 44:44.02 | 6:38.55 | 201302 | 231206
12 | 51:22.57 | 7:28.48 | 231207 | 264854
13 | 58:51.30 | 4:16.65 | 264855 | 284119
14 | 63:08.20 | 8:26.05 | 284120 | 322074
15 | 71:34.25 | 5:04.20 | 322075 | 344894


Range status and errors

Selected range

Filename D:\Music\Goatsnake - I + Dog Days.wav

Peak level 100.0 %
Range quality 100.0 %
Copy CRC 7FA9D045
Copy OK

No errors occurred


AccurateRip summary

Track 1 not present in database
Track 2 not present in database
Track 3 not present in database
Track 4 not present in database
Track 5 not present in database
Track 6 not present in database
Track 7 not present in database
Track 8 not present in database
Track 9 not present in database
Track 10 not present in database
Track 11 not present in database
Track 12 not present in database
Track 13 not present in database
Track 14 not present in database
Track 15 not present in database

None of the tracks are present in the AccurateRip database

End of status report

auCDtect: CD records authenticity detector, version 0.8.2
Copyright © 2004 Oleg Berngardt. All rights reserved.
Copyright © 2004 Alexander Djourik. All rights reserved.
––––––––––––––––––––––––––––––
Processing file: [Goatsnake - I + Dog Days.wav]
Detected average hi-boundary frequency: 2.025378e+004 Hz
Detected average lo-boundary frequency: 1.389345e+004 Hz
Detected average hi-cut frequency: 2.183183e+004 Hz
Detected average lo-cut frequency: 1.443923e+004 Hz
Maximum probablis boundary frequency: 2.189100e+004 Hz
Coefficient of nonlinearity of a phase: 6.197159e-001
First order smothness: 3.444302e-001
Second order smothness: 5.770990e-001

––––––––––––––––––––––––––––––
This track looks like CDDA with probability 100%

––––––––––––––––––––––––––––––
Final Conclusion:
––––––––––––––––––––––––––––––
These tracks looks like CDDA with probability 100%


EAC wavcrc32 v0.22 © ]DichlofoS[ Systems, 2007
thanx to: BakLAN, siro and other beta-testers/contributors!
file opened ok
RIFF header checked ok
please wait while couning checksums…
processing 202798260 samples…
file closed ok
–- used in EAC:
generic: grabbing, "no use…" off [all bytes] : 7FA9D045.
generic: grabbing, "no use…" on [word nulsamples l/r] : 310E8EE4.
waveditor [word nulsamples l] : FAB8C25F.
–- no used in EAC, only for reference:
byte ignore zeros : CEF1711B.
dword nulsamples : 796DF466.
–-
time elapsed: 29422 ms


Track 1-8 - Goatsnake - I
Recorded by Count Schneeberger @ his Gas Chamber in Los Angeles Summer 97 & Spring 98.
Mastered at Capitol Mastering by Mark Chalecki.
Originally released by Man's Ruin Records as MR174CD in 1999 & Rise Above Records as CDRISE22.

Track 9-13 - Goatsnake - Dog Days (EP)
All songs recorded / mixed Summer 99 in Los Angeles, CA by Matthias [except Man Of Light which was recorded / mixed in 97].
Mastered at Southern Studios by John Loder.
Dog Days was originally released by Southern Lord as sunn5 in 2000.

Track 14 - previously unreleased, Black Sabath cover.
Track 15 - from Man Of Light 7" EP (Warpburner Records, warp 003, 1998).