Gram Parsons - GP (1973) / Grievous Angel (1974) [2LP on 1CD, 1990]

Posted By: plonker
Gram Parsons - GP (1973) / Grievous Angel (1974) [2LP on 1CD, 1990]

Gram Parsons - GP (1973) / Grievous Angel (1974) [2LP on 1CD, 1990]
Country-Rock | EAC rip | WV: IMG+CUE+LOG -> 436 MB | mp3 (VBR V0) -> 155 MB
75:10 min | scans (png) -> 76 MB | 3% recovery | NF & FF | Reprise 7599-26108-2

AMG review by Mark Deming:
In the year before his death in the fall of 1973, Gram Parsons recorded two superb solo albums, and Warner Brothers has conveniently reissued them in their entirety on a single compact disc. Since many of the same musicians played on both G.P. (released in January of 1973) and Grievous Angel (which appeared in stores almost exactly a year later), the two albums flow together quite well as a single set. And while no bonus tracks were added, the booklet features well-written essays on Parsons from John M. Delgatto and Marley Brant, the complete liner notes from both albums, and lyrics for all the songs on the disc (which weren't included in the original vinyl issues). While the material and performances on G.P. are a shade stronger than on Grievous Angel, both albums have more than their share of pearly moments, and this disc is a treat from start to finish; James Burton's guitar leads are chicken-pickin' at its smartest and most tasteful, Al Perkins' pedal steel is the definitive sound of country & western heartache, fiddler Byron Berline effortlessly reveals how he became one of Nashville's leading session musicians, and Parsons' duets with the young Emmylou Harris are nothing less than sublime. And would anyone who loves either country or rock really want to be without a CD that includes songs like "A Song for You," "The New Soft Shoe," "Big Mouth Blues," "$1,000 Wedding," or "In My Hour of Darkness"? While the definitive Gram Parsons collection has yet to be compiled, G.P./Grievous Angel gives you everything you really need from his solo career, and these 20 performances are among the most influential and satisfying music the genre of country-rock would ever produce. (5/5)
Release Dates: 'GP' January 1973 ; 'Grievous Angel' January 1974
This release: March 27, 1990

Tracklist:
== GP ==
01 Still Feeling Blue (02:41)
02 We'll Sweep Out the Ashes in the Morning (03:14)
03 A Song for You (04:58)
04 Streets of Baltimore (02:54)
05 She (04:59)
06 That's All It Took (02:59)
07 The New Soft Shoe (03:54)
08 Kiss the Children (02:58)
09 Cry One More Time (03:38)
10 How Much I've Lied (02:30)
11 Big Mouth Blues (03:53)
== Grievous Angel ==
12 Return of the Grievous Angel (04:24)
13 Hearts on Fire (03:50)
14 I Can't Dance (02:23)
15 Brass Buttons (03:31)
16 $1000 Wedding (05:02)
17 Medley Live From Northern Quebec: (A) Cash on the Barrelhead / (B) Hickory Wind (06:26)
18 Love Hurts (03:41)
19 Ooh Las Vegas (03:30)
20 In My Hour of Darkness (03:44)

Exact Audio Copy V1.1 from 23. June 2015

EAC extraction logfile from 29. February 2016, 10:16

Gram Parsons / GP / Grievous Angel

Used drive : TSSTcorpCDDVDW TS-L633C Adapter: 1 ID: 0

Read mode : Secure
Utilize accurate stream : Yes
Defeat audio cache : Yes
Make use of C2 pointers : No

Read offset correction : 6
Overread into Lead-In and Lead-Out : No
Fill up missing offset samples with silence : Yes
Delete leading and trailing silent blocks : No
Null samples used in CRC calculations : Yes
Used interface : Native Win32 interface for Win NT & 2000

Used output format : Internal WAV Routines
Sample format : 44.100 Hz; 16 Bit; Stereo


TOC of the extracted CD

Track | Start | Length | Start sector | End sector
––––––––––––––––––––––––––––-
1 | 0:00.00 | 2:41.22 | 0 | 12096
2 | 2:41.22 | 3:13.38 | 12097 | 26609
3 | 5:54.60 | 4:58.00 | 26610 | 48959
4 | 10:52.60 | 2:53.45 | 48960 | 61979
5 | 13:46.30 | 4:59.02 | 61980 | 84406
6 | 18:45.32 | 2:59.25 | 84407 | 97856
7 | 21:44.57 | 3:54.30 | 97857 | 115436
8 | 25:39.12 | 2:57.60 | 115437 | 128771
9 | 28:36.72 | 3:38.15 | 128772 | 145136
10 | 32:15.12 | 2:29.43 | 145137 | 156354
11 | 34:44.55 | 3:52.62 | 156355 | 173816
12 | 38:37.42 | 4:24.00 | 173817 | 193616
13 | 43:01.42 | 3:49.70 | 193617 | 210861
14 | 46:51.37 | 2:23.18 | 210862 | 221604
15 | 49:14.55 | 3:30.40 | 221605 | 237394
16 | 52:45.20 | 5:02.20 | 237395 | 260064
17 | 57:47.40 | 6:26.30 | 260065 | 289044
18 | 64:13.70 | 3:41.22 | 289045 | 305641
19 | 67:55.17 | 3:30.35 | 305642 | 321426
20 | 71:25.52 | 3:43.48 | 321427 | 338199


Range status and errors

Selected range

Filename D:\mR\Gram Parsons - GP & Grievous Angel.wav

Peak level 92.9 %
Extraction speed 3.5 X
Range quality 100.0 %
Test CRC CFD636C4
Copy CRC CFD636C4
Copy OK

No errors occurred


AccurateRip summary

Track 1 accurately ripped (confidence 57) [C68413EF] (AR v2)
Track 2 accurately ripped (confidence 57) [3C73E2AD] (AR v2)
Track 3 accurately ripped (confidence 57) [6944AAED] (AR v2)
Track 4 accurately ripped (confidence 56) [C953CE85] (AR v2)
Track 5 accurately ripped (confidence 56) [5D378C60] (AR v2)
Track 6 accurately ripped (confidence 55) [D2724F70] (AR v2)
Track 7 accurately ripped (confidence 56) [69658347] (AR v2)
Track 8 accurately ripped (confidence 57) [B4DF8F98] (AR v2)
Track 9 accurately ripped (confidence 54) [0D1E1D2A] (AR v2)
Track 10 accurately ripped (confidence 55) [E983216C] (AR v2)
Track 11 accurately ripped (confidence 56) [A63FF5F7] (AR v2)
Track 12 accurately ripped (confidence 56) [AD011D6D] (AR v2)
Track 13 accurately ripped (confidence 56) [ED902EC0] (AR v2)
Track 14 accurately ripped (confidence 56) [00FF508F] (AR v2)
Track 15 accurately ripped (confidence 55) [14E9CDB9] (AR v2)
Track 16 accurately ripped (confidence 55) [6E3B473B] (AR v2)
Track 17 accurately ripped (confidence 55) [60685CF8] (AR v2)
Track 18 accurately ripped (confidence 55) [76412167] (AR v2)
Track 19 accurately ripped (confidence 56) [301CCA51] (AR v2)
Track 20 accurately ripped (confidence 55) [D952A034] (AR v2)

All tracks accurately ripped

End of status report

–– CUETools DB Plugin V2.1.6

[CTDB TOCID: L10AB._TunI9KMuZR4rx2YqXzzA-] found
Submit result: L10AB._TunI9KMuZR4rx2YqXzzA- has been confirmed
Track | CTDB Status
1 | (91/92) Accurately ripped
2 | (92/92) Accurately ripped
3 | (91/92) Accurately ripped
4 | (92/92) Accurately ripped
5 | (91/92) Accurately ripped
6 | (91/92) Accurately ripped
7 | (92/92) Accurately ripped
8 | (92/92) Accurately ripped
9 | (92/92) Accurately ripped
10 | (92/92) Accurately ripped
11 | (92/92) Accurately ripped
12 | (92/92) Accurately ripped
13 | (91/92) Accurately ripped
14 | (91/92) Accurately ripped
15 | (91/92) Accurately ripped
16 | (90/92) Accurately ripped
17 | (89/92) Accurately ripped
18 | (90/92) Accurately ripped
19 | (90/92) Accurately ripped
20 | (86/92) Accurately ripped


==== Log checksum 84D82F002B68172C7544A59B513300EA31A6AC962699DFBF25EE04F236749D50 ====



************ download ************

Filefactory

Bigfile

password (if needed): avax