Subcategories

Grant Green - Alive (1970)

Posted By: intothe
Grant Green - Alive (1970)

Grant Green - Alive (1970)
Jazz | EAC rip (FLAC+CUE+LOG) | 275 MB | full scans
Blue Note | 36:45 | RAR with 5% recovery


EAC extraction logfile from 6. May 2009, 12:30

Grant Green / Alive

Used drive : _NEC DVD_RW ND-3500AG Adapter: 0 ID: 0

Read mode : Secure
Utilize accurate stream : Yes
Defeat audio cache : Yes
Make use of C2 pointers : No

Read offset correction : 48
Overread into Lead-In and Lead-Out : No
Fill up missing offset samples with silence : Yes
Delete leading and trailing silent blocks : No
Null samples used in CRC calculations : Yes
Used interface : Native Win32 interface for Win NT & 2000

Used output format : User Defined Encoder
Selected bitrate : 768 kBit/s
Quality : High
Add ID3 tag : No
Command line compressor : C:\Program Files\Exact Audio Copy\FLAC\FLAC.EXE
Additional command line options : -6 -V -T "ARTIST=%a" -T "TITLE=%t" -T "ALBUM=%g" -T "DATE=%y" -T "TRACKNUMBER=%n" -T "GENRE=%m" -T "COMMENT=%e" %s -o %d


TOC of the extracted CD

Track | Start | Length | Start sector | End sector
––––––––––––––––––––––––––––-
1 | 0:00.00 | 8:42.07 | 0 | 39156
2 | 8:42.07 | 11:18.73 | 39157 | 90079
3 | 20:01.05 | 11:10.35 | 90080 | 140364
4 | 31:11.40 | 6:45.30 | 140365 | 170769


Range status and errors

Selected range

Filename J:\eMusic\Rip\Grant Green - Alive.wav

Peak level 100.0 %
Range quality 100.0 %
Copy CRC B5E0F5CF
Copy OK

No errors occurred


AccurateRip summary

Track 1 accurately ripped (confidence 3) [D55E3B16]
Track 2 accurately ripped (confidence 3) [AE11E3D5]
Track 3 accurately ripped (confidence 2) [334F010E]
Track 4 accurately ripped (confidence 3) [E5995792]

All tracks accurately ripped

End of status report


Alive! is the hardest funk LP Grant Green recorded during the later phase of his career, capturing a storming gig at Newark's Cliché Lounge. The sweaty club atmosphere adds something to the music that's difficult to pin down, yet unmistakably present – a certain organic quality that isn't as noticeable on Green's studio albums of the time. Moreover, Green sounds more like the captain of his ship, with greater assurance in his musical direction and more strut on the R&B material. Drummer Idris Muhammad is a monster in this live setting, and he helps push Green (plus the rest of the band, which includes organist Ronnie Foster) even farther with his kinetic, continually evolving funk rhythms. That's especially true on the swaggering Kool & the Gang cover "Let the Music Take Your Mind," but Don Covay's "Sookie, Sookie" grooves almost as powerfully. What's most surprising about the set, though, is that Green finds ways to work in bits of the modal style he had been pursuing in the mid-'60s on slower pieces like the Earl Neal Creque ballad "Time to Remember" and "Down Here on the Ground," which was later sampled by jazz-rap pioneers A Tribe Called Quest. Green's continued interest in modal jazz is reinforced on the CD reissue, which contains a spacy, grooving cover of Herbie Hancock's classic "Maiden Voyage" as a bonus track (the other two are contemporary R&B covers "Hey, Western Union Man" and "It's Your Thing"). Still, this is the most convincing and consistent Green had been as a funkster and, while nearly all of his albums from the early '70s feature at least some worthwhile material for acid jazz and beat-sampling junkies, Alive! is probably the best place to start. - by Steve Huey, AMG

Tracks:
1. Let The Music Take Your Mind (Kool & the Gang/Gene Redd) 8:42
2. Time to Remember (Earl Neal Creque) 11:19
3. Sookie, Sookie (Don Covay/Steve Cropper) 11:10
4. Down Here on the Ground (Gale Garnett/Lalo Schifrin) 6:44

Personnel:
Grant Green (Guitar)
Claude Bartee (Tenor Saxophone)
William Bivens (Vibraphone)
Ronnie Foster (Organ)
Earl Neal Creque (Organ) - 2,4
Idris Muhammad (Drums)
Joseph Armstrong (Conga)

Dlink