Tags
Language
Tags

Halle, Elder - Nielsen: Symphony No. 4, Shostakovich: Symphony No. 9 (2017)

Posted By: shamanicus
Halle, Elder - Nielsen: Symphony No. 4, Shostakovich: Symphony No. 9 (2017)

Hallé, Elder - Nielsen: Symphony No. 4, Shostakovich: Symphony No. 9 (2017)
EAC Rip | FLAC (tracks+.cue, log) | Covers - Front, Back | 277 mb | MP3 CBR 320kbps | RAR | 148 mb
Classical | Label: BBC Music / BBCMM41

This CD accompanied BBC Music Magazine Vol. 25 No. 9. In our June issue, we enjoy an exclusive interview with Sir Mark Elder as the Hallé’s conductor turns 70 and present a free cover CD of the orchestra performing Nielsen’s Symphony No. 4, ‘The Inextinguishable’.

Tracklist:

Symphony No.4, Op.29 'The Inextinguishable'
Carl Nielsen (1865-1931)
1. I Allegro
2. II Poco Allegretto
3. III Poco Adagio Quasi Andante
4. IV Allegro

Symphony No.9, Op.70
Dmitri Shostakovich (1906-75)

5. I Allegro
6. II Moderato
7. III Presto
8. IV Largo
9. V Allegretto

Halle, Elder - Nielsen: Symphony No. 4, Shostakovich: Symphony No. 9 (2017)


Tracks 1-4 recorded live at
The Bridgewater Hall,
Manchester, 19 May 2005
Tracks 5-9 recorded live at
The Bridgewater Hall,
Manchester, 9 February 2006
Editing and mastering
Jennifer Howells
Cover Getty
The recordings on this BBC Music
Magazine cover CD are featured
by kind permission of the Hallé
Concerts Society


Exact Audio Copy V1.3 from 2. September 2016

EAC extraction logfile from 24. June 2017, 13:52

The Hallé, Sir Mark Elder / Symphony No. 4 'The Inextinguishable' / Symphony No. 9

Used drive : HL-DT-STBDDVDRW UH12LS29 Adapter: 1 ID: 0

Read mode : Secure
Utilize accurate stream : Yes
Defeat audio cache : Yes
Make use of C2 pointers : No

Read offset correction : 667
Overread into Lead-In and Lead-Out : No
Fill up missing offset samples with silence : Yes
Delete leading and trailing silent blocks : No
Null samples used in CRC calculations : Yes
Used interface : Native Win32 interface for Win NT & 2000
Gap handling : Appended to previous track

Used output format : User Defined Encoder
Selected bitrate : 1024 kBit/s
Quality : High
Add ID3 tag : No
Command line compressor : C:\Program Files (x86)\FLAC\flac.exe
Additional command line options : -8 -e -p -V -T "ARTIST=%artist%" -T "TITLE=%title%" -T "ALBUM=%albumtitle%" -T "DATE=%year%" -T "TRACKNUMBER=%tracknr%" -T "GENRE=%genre%" -T "PERFORMER=%albuminterpret%" -T "COMPOSER=%composer%" %haslyrics%–tag-from-file=LYRICS="%lyricsfile%"%haslyrics% -T "ALBUMARTIST=%albumartist%" -T "DISCNUMBER=%cdnumber%" -T "TOTALDISCS=%totalcds%" -T "TOTALTRACKS=%numtracks%" -T "COMMENT=%comment%" %source% -o %dest%


TOC of the extracted CD

Track | Start | Length | Start sector | End sector
––––––––––––––––––––––––––––-
1 | 0:00.00 | 11:47.72 | 0 | 53096
2 | 11:47.72 | 5:10.54 | 53097 | 76400
3 | 16:58.51 | 10:20.13 | 76401 | 122913
4 | 27:18.64 | 9:07.09 | 122914 | 163947
5 | 36:25.73 | 5:33.19 | 163948 | 188941
6 | 41:59.17 | 7:43.23 | 188942 | 223689
7 | 49:42.40 | 2:49.65 | 223690 | 236429
8 | 52:32.30 | 3:18.04 | 236430 | 251283
9 | 55:50.34 | 7:00.22 | 251284 | 282805


Track 1

Filename Z:\EAC\Hallé, Elder - Nielsen Sym. No. 4, Shostakovich, Sym. No. 9 (2017) [FLAC]\01 - Symphony No. 4, Op. 29 (FS76) 'The Inextinguishable' - I. Allegro.wav

Pre-gap length 0:00:02.00

Peak level 93.4 %
Extraction speed 1.5 X
Track quality 100.0 %
Test CRC 43E0B200
Copy CRC 43E0B200
Track not present in AccurateRip database
Copy OK

Track 2

Filename Z:\EAC\Hallé, Elder - Nielsen Sym. No. 4, Shostakovich, Sym. No. 9 (2017) [FLAC]\02 - Symphony No. 4, Op. 29 (FS76) 'The Inextinguishable' - II. Poco allegretto.wav

Peak level 18.7 %
Extraction speed 1.5 X
Track quality 99.9 %
Test CRC 310B0118
Copy CRC 310B0118
Track not present in AccurateRip database
Copy OK

Track 3

Filename Z:\EAC\Hallé, Elder - Nielsen Sym. No. 4, Shostakovich, Sym. No. 9 (2017) [FLAC]\03 - Symphony No. 4, Op. 29 (FS76) 'The Inextinguishable' - III. Poco adagio quasi andante.wav

Peak level 97.7 %
Extraction speed 1.8 X
Track quality 99.9 %
Test CRC 30B0EE23
Copy CRC 30B0EE23
Track not present in AccurateRip database
Copy OK

Track 4

Filename Z:\EAC\Hallé, Elder - Nielsen Sym. No. 4, Shostakovich, Sym. No. 9 (2017) [FLAC]\04 - Symphony No. 4, Op. 29 (FS76) 'The Inextinguishable' - IV. Allegro.wav

Peak level 96.8 %
Extraction speed 2.0 X
Track quality 99.9 %
Test CRC 64130DB5
Copy CRC 64130DB5
Track not present in AccurateRip database
Copy OK

Track 5

Filename Z:\EAC\Hallé, Elder - Nielsen Sym. No. 4, Shostakovich, Sym. No. 9 (2017) [FLAC]\05 - Symphony No. 9 in E flat major, Op. 70 - I. Allegro.wav

Pre-gap length 0:00:09.11

Peak level 81.4 %
Extraction speed 2.2 X
Track quality 100.0 %
Test CRC B1F0A8E7
Copy CRC B1F0A8E7
Track not present in AccurateRip database
Copy OK

Track 6

Filename Z:\EAC\Hallé, Elder - Nielsen Sym. No. 4, Shostakovich, Sym. No. 9 (2017) [FLAC]\06 - Symphony No. 9 in E flat major, Op. 70 - II. Moderato.wav

Peak level 40.7 %
Extraction speed 2.4 X
Track quality 100.0 %
Test CRC FE81D0A9
Copy CRC FE81D0A9
Track not present in AccurateRip database
Copy OK

Track 7

Filename Z:\EAC\Hallé, Elder - Nielsen Sym. No. 4, Shostakovich, Sym. No. 9 (2017) [FLAC]\07 - Symphony No. 9 in E flat major, Op. 70 - III. Presto.wav

Peak level 73.1 %
Extraction speed 2.2 X
Track quality 100.0 %
Test CRC F1C9BB66
Copy CRC F1C9BB66
Track not present in AccurateRip database
Copy OK

Track 8

Filename Z:\EAC\Hallé, Elder - Nielsen Sym. No. 4, Shostakovich, Sym. No. 9 (2017) [FLAC]\08 - Symphony No. 9 in E flat major, Op. 70 - IV. Largo.wav

Peak level 74.6 %
Extraction speed 2.4 X
Track quality 100.0 %
Test CRC CFAC56CA
Copy CRC CFAC56CA
Track not present in AccurateRip database
Copy OK

Track 9

Filename Z:\EAC\Hallé, Elder - Nielsen Sym. No. 4, Shostakovich, Sym. No. 9 (2017) [FLAC]\09 - Symphony No. 9 in E flat major, Op. 70 - V. Allegretto.wav

Peak level 95.6 %
Extraction speed 2.5 X
Track quality 99.9 %
Test CRC 11E3CB67
Copy CRC 11E3CB67
Track not present in AccurateRip database
Copy OK


None of the tracks are present in the AccurateRip database

No errors occurred

End of status report

–– CUETools DB Plugin V2.1.6

[CTDB TOCID: UT_YBvXBzwLopCanROy.qe28Z_M-] found
Submit result: already submitted
Track | CTDB Status
1 | (18/18) Accurately ripped
2 | (18/18) Accurately ripped
3 | (18/18) Accurately ripped
4 | (18/18) Accurately ripped
5 | (18/18) Accurately ripped
6 | (18/18) Accurately ripped
7 | (18/18) Accurately ripped
8 | (18/18) Accurately ripped
9 | (18/18) Accurately ripped


==== Log checksum 8A023CF4206C4939C777963E74555454961E6F632D7582ED8E2D81D889DB979F ====


Thanks to the Original customer.