Subcategories

Handel - Das Kleine Konzert, Max - Solo Cantatas (2006, Capriccio # 71 083) {Hybrid-SACD // EAC Rip}

Posted By: luckburz
Handel - Das Kleine Konzert, Max - Solo Cantatas (2006, Capriccio # 71 083) {Hybrid-SACD // EAC Rip}

Georg Friedrich Händel - Solo Cantatas
Veronika Winter, soprano / Das Kleine Konzert / Hermann Max
EAC+LOG+CUE | FLAC: 255 MB | Full Artwork | 5% Recovery Info
Label/Cat#: Capriccio # 71 083 | Country/Year: Germany 2006
Genre: Classical | Style: Baroque

MD5 [X] CUE [X] LOG [X] INFO TEXT [X] ARTWORK [X]

my rip [X] not my rip [ ]

Handel - Das Kleine Konzert, Max - Solo Cantatas (2006, Capriccio # 71 083) {Hybrid-SACD // EAC Rip}


Exact Audio Copy V1.0 beta 3 from 29. August 2011

EAC extraction logfile from 30. September 2013, 15:38

Veronika Winter, Das Kleine Konzert, Hermann Max / Handel: Solo Cantatas

Used drive : PIONEER BD-RW BDR-206 Adapter: 0 ID: 2

Read mode : Secure
Utilize accurate stream : Yes
Defeat audio cache : Yes
Make use of C2 pointers : No

Read offset correction : 667
Overread into Lead-In and Lead-Out : No
Fill up missing offset samples with silence : Yes
Delete leading and trailing silent blocks : No
Null samples used in CRC calculations : Yes
Used interface : Native Win32 interface for Win NT & 2000

Used output format : User Defined Encoder
Selected bitrate : 1024 kBit/s
Quality : High
Add ID3 tag : Yes
Command line compressor : C:\Program Files\FLAC\flac.exe
Additional command line options : -5 -T "Artist=%artist%" -T "Title=%title%" -T "Album=%albumtitle%" -T "Date=%year%" -T "Tracknumber=%tracknr%" -T "Genre=%genre%" %source% -o %dest%


TOC of the extracted CD

Track | Start | Length | Start sector | End sector
––––––––––––––––––––––––––––-
1 | 0:00.00 | 0:29.67 | 0 | 2241
2 | 0:29.67 | 6:13.13 | 2242 | 30229
3 | 6:43.05 | 0:22.10 | 30230 | 31889
4 | 7:05.15 | 4:59.30 | 31890 | 54344
5 | 12:04.45 | 0:17.30 | 54345 | 55649
6 | 12:22.00 | 1:33.22 | 55650 | 62646
7 | 13:55.22 | 1:04.29 | 62647 | 67475
8 | 14:59.51 | 4:18.22 | 67476 | 86847
9 | 19:17.73 | 0:23.31 | 86848 | 88603
10 | 19:41.29 | 0:58.13 | 88604 | 92966
11 | 20:39.42 | 2:39.32 | 92967 | 104923
12 | 23:18.74 | 0:53.69 | 104924 | 108967
13 | 24:12.68 | 3:43.13 | 108968 | 125705
14 | 27:56.06 | 0:39.53 | 125706 | 128683
15 | 28:35.59 | 3:59.23 | 128684 | 146631
16 | 32:35.07 | 0:23.60 | 146632 | 148416
17 | 32:58.67 | 2:56.61 | 148417 | 161677
18 | 35:55.53 | 0:15.20 | 161678 | 162822
19 | 36:10.73 | 2:46.69 | 162823 | 175341
20 | 38:57.67 | 2:02.17 | 175342 | 184508
21 | 41:00.09 | 2:15.58 | 184509 | 194691
22 | 43:15.67 | 1:10.39 | 194692 | 199980
23 | 44:26.31 | 2:44.34 | 199981 | 212314
24 | 47:10.65 | 0:50.40 | 212315 | 216104
25 | 48:01.30 | 2:27.13 | 216105 | 227142
26 | 50:28.43 | 1:46.31 | 227143 | 235123
27 | 52:14.74 | 3:25.17 | 235124 | 250515
28 | 55:40.16 | 0:29.19 | 250516 | 252709
29 | 56:09.35 | 4:02.64 | 252710 | 270923


Range status and errors

Selected range

Filename F:\=== VINYL RIPS ===\=== EAC===\X FRESH RIP\Handel- Das Kleine Konzert, Hermann Max - Solo Cantatas.wav

Peak level 95.8 %
Extraction speed 1.9 X
Range quality 100.0 %
Test CRC 74A26AF5
Copy CRC 74A26AF5
Copy OK

No errors occurred


AccurateRip summary

Track 1 accurately ripped (confidence 1) [AA877CD5] (AR v1)
Track 2 accurately ripped (confidence 1) [08B20BC2] (AR v1)
Track 3 accurately ripped (confidence 1) [BC79B0B3] (AR v1)
Track 4 accurately ripped (confidence 1) [D3E1FBCD] (AR v1)
Track 5 accurately ripped (confidence 1) [9E8C0AEC] (AR v1)
Track 6 accurately ripped (confidence 1) [01B2D081] (AR v1)
Track 7 accurately ripped (confidence 1) [6432DD45] (AR v1)
Track 8 accurately ripped (confidence 1) [5D0B081C] (AR v1)
Track 9 accurately ripped (confidence 1) [0D5FF119] (AR v1)
Track 10 accurately ripped (confidence 1) [935C9407] (AR v1)
Track 11 accurately ripped (confidence 1) [E5ECB0C2] (AR v1)
Track 12 accurately ripped (confidence 1) [322641E2] (AR v1)
Track 13 accurately ripped (confidence 1) [9A20130F] (AR v1)
Track 14 accurately ripped (confidence 1) [A007D758] (AR v1)
Track 15 accurately ripped (confidence 1) [A893F19C] (AR v1)
Track 16 accurately ripped (confidence 1) [59B27786] (AR v1)
Track 17 accurately ripped (confidence 1) [78BBC665] (AR v1)
Track 18 accurately ripped (confidence 1) [C0022A90] (AR v1)
Track 19 accurately ripped (confidence 1) [7C986EDE] (AR v1)
Track 20 accurately ripped (confidence 1) [6A3ECB5C] (AR v1)
Track 21 accurately ripped (confidence 1) [359547CC] (AR v1)
Track 22 accurately ripped (confidence 1) [145D4B0A] (AR v1)
Track 23 accurately ripped (confidence 1) [5B9E980D] (AR v1)
Track 24 accurately ripped (confidence 1) [A26B5577] (AR v1)
Track 25 accurately ripped (confidence 1) [FAB87122] (AR v1)
Track 26 accurately ripped (confidence 1) [778AEF01] (AR v1)
Track 27 accurately ripped (confidence 1) [F696B174] (AR v1)
Track 28 accurately ripped (confidence 1) [A078285D] (AR v1)
Track 29 accurately ripped (confidence 1) [6F910772] (AR v1)

All tracks accurately ripped

End of status report

–– CUETools DB Plugin V2.1.3

[CTDB TOCID: ZmDSr2WfPNadpWgGx4N._jx3TyU-] disk not present in database, Submit result: ZmDSr2WfPNadpWgGx4N._jx3TyU- has been uploaded


==== Log checksum C68B4EE6814F3255091C98421B4F3F9CE2C6BD65BF9B1929838A0E660A735B29 ====

foobar2000 1.1.14a / Dynamic Range Meter 1.1.1
log date: 2013-10-02 09:51:17

––––––––––––––––––––––––––––––––––––––––
Analyzed: Veronika Winter, Das Kleine Konzert, Hermann Max / Handel: Solo Cantatas
––––––––––––––––––––––––––––––––––––––––

DR Peak RMS Duration Track
––––––––––––––––––––––––––––––––––––––––
DR10 -9.79 dB -24.79 dB 0:30 01-Un' alma innamorata HWV 173 - 1. Recitativo 'Un' alma innamorata'
DR13 -2.06 dB -21.15 dB 6:13 02– 2. Aria 'Quel povero core'
DR10 -4.10 dB -23.24 dB 0:22 03– 3. Recitativo 'E pur bench' egli veda'
DR14 -2.55 dB -22.35 dB 4:59 04– 4. Aria 'Io godo, rido e spero'
DR12 -9.81 dB -25.64 dB 0:17 05– 5. Recitativo 'In quanto a me'
DR14 -2.25 dB -20.32 dB 1:33 06– 6. Aria 'Ben impari come s'ama'
DR14 -5.01 dB -25.46 dB 1:04 07-Dietro l'orme fugaci HWV 105 - 1. Accompagnato 'Dietro l'orme fugaci'
DR14 -3.74 dB -23.17 dB 4:18 08– 2. Aria 'Ah! Crudele'
DR9 -1.96 dB -20.92 dB 0:23 09– 3. Recitativo ' Per te, mi struggo'
DR12 -2.43 dB -20.19 dB 0:58 10– 4. Accompagnato 'O voi, dell' incostante'
DR13 -2.06 dB -21.30 dB 2:39 11– 5. Aria 'Venti, vebti, fermate'
DR11 -0.37 dB -19.08 dB 0:54 12– 6. Recitativo 'Ma che parlo'
DR13 -4.36 dB -25.52 dB 3:43 13– 7. Aria 'In tanti affanni mici'
DR12 -7.19 dB -24.42 dB 0:40 14-Figlio d'alte speranze HWV 113 - 1. Recitativo: 'iglio d'alte speranze'
DR13 -4.64 dB -22.60 dB 3:59 15– 2. Aria 'Troppo costa ad un'alma'
DR12 -6.37 dB -23.20 dB 0:24 16– 3. Recitativo 'Era conforto'
DR14 -6.66 dB -25.59 dB 2:57 17– 4. Aria 'Sia guida, sia stella'
DR12 -9.45 dB -25.49 dB 0:15 18– 5. Recitativo 'In cosi dir'
DR13 -3.25 dB -21.65 dB 2:47 19– 6. Aria 'Brillava protetto'
DR13 -2.60 dB -22.42 dB 2:02 20-Psalmus 112 'Laudate pueri Dominum' HWV 236 - 1. 'Laudate pueri Dominum'
DR12 -5.92 dB -22.72 dB 2:16 21– 2. 'Sit nomen Domini'
DR13 -4.95 dB -22.24 dB 1:11 22– 3. 'A solis ortu'
DR14 -2.33 dB -21.51 dB 2:44 23– 4. 'Excelsus super omnes'
DR11 -4.85 dB -20.85 dB 0:51 24– 5. 'Quis sicut Dominus'
DR11 -6.06 dB -22.06 dB 2:27 25– 6. 'Suscitans a terra inopem'
DR12 -3.64 dB -21.78 dB 1:46 26– 7. 'Ut collocet eum'
DR13 -2.58 dB -20.52 dB 3:25 27– 8. 'Qui habitare facet'
DR12 -2.08 dB -19.80 dB 0:29 28– 9. 'Gloria Patri et Filii'
DR14 -1.83 dB -22.79 dB 4:03 29– 10. 'Sicut erat in principio'
––––––––––––––––––––––––––––––––––––––––

Number of tracks: 29
Official DR value: DR12

Samplerate: 44100 Hz
Channels: 2
Bits per sample: 16
Bitrate: 594 kbps
Codec: FLAC
================================================================================



CD Info:

Georg Friedrich Händel - Solo Cantatas

Veronika Winter, soprano / Das Kleine Konzert / Hermann Max

Label: Capriccio
Catalog#: 71 083
Format: Hybrid-SACD, Album, Stereo
Country: Germany
Released: 2006
Genre: Classical
Style: Baroque

Tracklist:

1 Un' alma innamorata HWV 173 - 1. Recitativo 'Un' alma innamorata' 0:30
2 - 2. Aria 'Quel povero core' 6:13
3 - 3. Recitativo 'E pur bench' egli veda' 0:22
4 - 4. Aria 'Io godo, rido e spero' 4:59
5 - 5. Recitativo 'In quanto a me' 0:17
6 - 6. Aria 'Ben impari come s'ama' 1:33
7 Dietro l'orme fugaci HWV 105 - 1. Accompagnato 'Dietro l'orme fugaci' 1:04
8 - 2. Aria 'Ah! Crudele' 4:18
9 - 3. Recitativo ' Per te, mi struggo' 0:23
10 - 4. Accompagnato 'O voi, dell' incostante' 0:58
11 - 5. Aria 'Venti, vebti, fermate' 2:39
12 - 6. Recitativo 'Ma che parlo' 0:54
13 - 7. Aria 'In tanti affanni mici' 3:43
14 Figlio d'alte speranze HWV 113 - 1. Recitativo: 'iglio d'alte speranze' 0:40
15 - 2. Aria 'Troppo costa ad un'alma' 3:59
16 - 3. Recitativo 'Era conforto' 0:24
17 - 4. Aria 'Sia guida, sia stella' 2:57
18 - 5. Recitativo 'In cosi dir' 0:15
19 - 6. Aria 'Brillava protetto' 2:47
20 Psalmus 112 'Laudate pueri Dominum' HWV 236 - 1. 'Laudate pueri Dominum' 2:02
21 - 2. 'Sit nomen Domini' 2:16
22 - 3. 'A solis ortu' 1:11
23 - 4. 'Excelsus super omnes' 2:44
24 - 5. 'Quis sicut Dominus' 0:51
25 - 6. 'Suscitans a terra inopem' 2:27
26 - 7. 'Ut collocet eum' 1:46
27 - 8. 'Qui habitare facet' 3:25
28 - 9. 'Gloria Patri et Filii' 0:29
29 - 10. 'Sicut erat in principio' 4:03

Born: 1941, Goslar, Lower Saxony, Germany

The German conductor, Hermann Max, studied music at the Berlin Musikhochschule and musicology at the University of Köln. In addition he studied there art history and archaeology.

Since the 1960's, historical performance practice has become an established part of musical life. Historical Performance Practice (HIP) includes research in libraries and archives, making editions faithful to the original sources, the use of historical instruments (or exact replicas) and above all, musical performance that pays regard to the rules for a particular period. One of the key figures in this development in Germany is Hermann Max.

Hermann Max came to the fore in the first place with the Rheinische Kantorei and the Baroque Orchestra Das Kleine Konzert through a series of productions for the Westdeutscher Rundfunk. With these recordings he was able to make an important contribution to throwing light on J.S. Bach's musical surroundings. Together with his ensembles, he has not only saved countless outstanding works of the German Baroque period from being forgotten, but has also built up a reputation for exemplary interpretations of standard works such as J.S. Bach's B Minor Mass (BWV 232) and the St. Matthew Passion (BWV 244) both in concerts and CD recordings. He is considered as one of the principal researchers and developers of the HIP, which has become the prevailing approach to the performance of early music today. The ideals that guided him in directing his choir are based on the Italian tradition: a bright sound, precise diction, secure intonation, transparency and lightness.

Hermann Max is active as an editor of early music, and regularly conducts, among others, the international interpretations for choral conducting and choral singing in Romain-môtier (Switzerland). Without his efforts, we would have a false or incomplete picture of an important period in musical history, the middle German music surrounding J.S. Bach, his sons and countless relations, colleagues and students. The numerous recordings for West German Radio and the many prize-winning CD's bear witness to this ambitious project he has pursued for many years. In 1998, he was awarded the Telemann-Prize by the city of Magdeburg for his efforts on behalf of Georg Philipp Telemann's music.

Furthermore, Hermann Max makes frequent appearances as a guest conductor and gives courses in the interpretation of early music both at home and abroad. In 1992, he founded the Knechtsteden-Festlichen Tage Alter Musik festival, which now takes place annually under his direction in the Romanesque monastery church of Knechtsteden near Düsseldorf. In June 2004 he performed with his choir and orchestra J.S. Bach’s Matthäus-Passion (BWV 244) at the Israel Festival Jerusalem. In June 2006 he performed in Israel J.S. Bach's Johannes-Passion (BWV 245) with the Israel Camerata Orchestra Jerusalem. ~bach-cantatas.com

Handel - Das Kleine Konzert, Max - Solo Cantatas (2006, Capriccio # 71 083) {Hybrid-SACD // EAC Rip}


all of my uploads in my blog
________________

NITROFLARE

Music Pt. 1 | | Music Pt. 2

Artwork

________________