Subcategories

J.S. Bach: Jagdkantate, Bauernkantate — Concentus musicus Wien, Nikolaus Harnoncourt

Posted By: Ivan78
J.S. Bach: Jagdkantate, Bauernkantate — Concentus musicus Wien, Nikolaus Harnoncourt

J.S. Bach: Jagdkantate, Bauernkantate — Concentus musicus Wien, Nikolaus Harnoncourt
Baroque | EAC, APE, CUE, LOG | Booklet (300dpi) | 1CD, 275 MB, RAR, RS
Teldec “Das Alte Werk” 4509-97501-2
©1995 TELDEC CLASSICS INTERNATIONAL GMBH


Recorded at Casino Zögernitz, Wien · May 1988

Johann Sebastian Bach (1685–1750)

Was mir behagt, ist nur die muntre Jagd! (BWV 208)
Diana: Yvone Kenny
Pales: Angela Maria Blasi
Endymion: Kurt Equiluz
Pan: Robert Holl

Mer hahn en neue Oberkeet (BWV 212)
Sopran: Angela Maria Blasi
Bass: Robert Holl


Arnold Schoenberg Chor
Chorus master: Erwin Ortner

Concentus musicus Wien, Nikolaus Harnoncourt


Exact Audio Copy V0.99 prebeta 4 from 23. January 2008

EAC extraction logfile from 6. May 2009, 10:45

Concentus Musicus Wien / Bach - Jagdkantate, Bauernkantate

Used drive : PIONEER DVD-RW DVR-116D Adapter: 0 ID: 1

Read mode : Secure
Utilize accurate stream : Yes
Defeat audio cache : Yes
Make use of C2 pointers : No

Read offset correction : 96
Overread into Lead-In and Lead-Out : No
Fill up missing offset samples with silence : Yes
Delete leading and trailing silent blocks : No
Null samples used in CRC calculations : No
Used interface : Native Win32 interface for Win NT & 2000

Used output format : Monkey's Audio Lossless Encoder
Selected bitrate : High Lossless Compression
Quality : High
Add ID3 tag : No
Command line compressor : C:\Program Files\Monkey's Audio\MAC.exe


TOC of the extracted CD

Track | Start | Length | Start sector | End sector
––––––––––––––––––––––––––––-
1 | 0:00.00 | 0:37.20 | 0 | 2794
2 | 0:37.20 | 1:51.00 | 2795 | 11119
3 | 2:28.20 | 1:12.67 | 11120 | 16586
4 | 3:41.12 | 4:44.55 | 16587 | 37941
5 | 8:25.67 | 2:19.65 | 37942 | 48431
6 | 10:45.57 | 0:37.65 | 48432 | 51271
7 | 11:23.47 | 2:33.23 | 51272 | 62769
8 | 13:56.70 | 0:37.27 | 62770 | 65571
9 | 14:34.22 | 4:56.60 | 65572 | 87831
10 | 19:31.07 | 0:11.13 | 87832 | 88669
11 | 19:42.20 | 3:14.47 | 88670 | 103266
12 | 22:56.67 | 2:00.63 | 103267 | 112329
13 | 24:57.55 | 1:48.37 | 112330 | 120466
14 | 26:46.17 | 3:19.48 | 120467 | 135439
15 | 30:05.65 | 3:36.70 | 135440 | 151709
16 | 33:42.60 | 2:10.50 | 151710 | 161509
17 | 35:53.35 | 0:34.40 | 161510 | 164099
18 | 36:28.00 | 0:58.05 | 164100 | 168454
19 | 37:26.05 | 1:05.05 | 168455 | 173334
20 | 38:31.10 | 0:22.60 | 173335 | 175044
21 | 38:53.70 | 1:12.35 | 175045 | 180479
22 | 40:06.30 | 0:20.57 | 180480 | 182036
23 | 40:27.12 | 1:32.18 | 182037 | 188954
24 | 41:59.30 | 0:32.12 | 188955 | 191366
25 | 42:31.42 | 1:15.00 | 191367 | 196991
26 | 43:46.42 | 0:45.60 | 196992 | 200426
27 | 44:32.27 | 0:50.15 | 200427 | 204191
28 | 45:22.42 | 0:25.70 | 204192 | 206136
29 | 45:48.37 | 7:24.65 | 206137 | 239501
30 | 53:13.27 | 0:21.73 | 239502 | 241149
31 | 53:35.25 | 0:43.35 | 241150 | 244409
32 | 54:18.60 | 0:21.25 | 244410 | 246009
33 | 54:40.10 | 0:39.37 | 246010 | 248971
34 | 55:19.47 | 0:20.18 | 248972 | 250489
35 | 55:39.65 | 5:50.65 | 250490 | 276804
36 | 61:30.55 | 0:15.17 | 276805 | 277946
37 | 61:45.72 | 0:43.35 | 277947 | 281206
38 | 62:29.32 | 0:33.15 | 281207 | 283696
39 | 63:02.47 | 1:06.65 | 283697 | 288711


Range status and errors

Selected range

Filename E:\utorrent\Concentus Musicus Wien - Bach - Jagdkantate, Bauernkantate.wav

Peak level 99.6 %
Range quality 100.0 %
Copy CRC 4D6D8E85
Copy OK

No errors occurred


AccurateRip summary

Track 1 cannot be verified as accurate (confidence 3) [13ED6EBB], AccurateRip returned [4B1D98E6]
Track 2 cannot be verified as accurate (confidence 3) [0CB86E98], AccurateRip returned [6E73A855]
Track 3 cannot be verified as accurate (confidence 3) [068AF9EE], AccurateRip returned [EAE9F206]
Track 4 cannot be verified as accurate (confidence 3) [3A5A41B1], AccurateRip returned [D14FE742]
Track 5 cannot be verified as accurate (confidence 3) [73AF5F62], AccurateRip returned [279B31AD]
Track 6 cannot be verified as accurate (confidence 3) [397CD63B], AccurateRip returned [898CD08F]
Track 7 cannot be verified as accurate (confidence 3) [8EFA339E], AccurateRip returned [064854BA]
Track 8 cannot be verified as accurate (confidence 3) [74D61D17], AccurateRip returned [1FE7B58D]
Track 9 cannot be verified as accurate (confidence 3) [B6AE83AD], AccurateRip returned [08E588BA]
Track 10 cannot be verified as accurate (confidence 3) [601D04A0], AccurateRip returned [FCA7791E]
Track 11 cannot be verified as accurate (confidence 3) [AF59CCF6], AccurateRip returned [227C9674]
Track 12 cannot be verified as accurate (confidence 3) [CEE4766E], AccurateRip returned [9535C225]
Track 13 cannot be verified as accurate (confidence 3) [501394AC], AccurateRip returned [42942E89]
Track 14 cannot be verified as accurate (confidence 3) [69FAFD83], AccurateRip returned [6A5C87A7]
Track 15 cannot be verified as accurate (confidence 3) [C1249B9E], AccurateRip returned [9D528DC3]
Track 16 cannot be verified as accurate (confidence 3) [CB290FDF], AccurateRip returned [06E15612]
Track 17 cannot be verified as accurate (confidence 3) [B4A50F69], AccurateRip returned [1BF92A9E]
Track 18 cannot be verified as accurate (confidence 3) [F17F3FB8], AccurateRip returned [8BEDDAF8]
Track 19 cannot be verified as accurate (confidence 3) [60577DC3], AccurateRip returned [BF91478D]
Track 20 cannot be verified as accurate (confidence 3) [06C2A4C8], AccurateRip returned [B3FCC15F]
Track 21 cannot be verified as accurate (confidence 3) [392A2C1B], AccurateRip returned [3D626F44]
Track 22 cannot be verified as accurate (confidence 3) [8AA9C789], AccurateRip returned [90614AF9]
Track 23 cannot be verified as accurate (confidence 3) [B0299364], AccurateRip returned [77A0895E]
Track 24 cannot be verified as accurate (confidence 3) [1A7FD9F2], AccurateRip returned [67C9429B]
Track 25 cannot be verified as accurate (confidence 3) [F66CA292], AccurateRip returned [9A99A995]
Track 26 cannot be verified as accurate (confidence 3) [A86928EB], AccurateRip returned [4BC4F279]
Track 27 cannot be verified as accurate (confidence 3) [6F934B4E], AccurateRip returned [120B089C]
Track 28 cannot be verified as accurate (confidence 3) [DAD65243], AccurateRip returned [821D5165]
Track 29 cannot be verified as accurate (confidence 3) [E93F651C], AccurateRip returned [2C03634F]
Track 30 cannot be verified as accurate (confidence 3) [6F8BC7CE], AccurateRip returned [965BF234]
Track 31 cannot be verified as accurate (confidence 3) [969D71F6], AccurateRip returned [69EBCF29]
Track 32 cannot be verified as accurate (confidence 3) [36C032A4], AccurateRip returned [77B46A67]
Track 33 cannot be verified as accurate (confidence 3) [FC751700], AccurateRip returned [3C72CD02]
Track 34 cannot be verified as accurate (confidence 3) [1A2AEA38], AccurateRip returned [FB13D0BE]
Track 35 cannot be verified as accurate (confidence 3) [C48E402D], AccurateRip returned [0C444093]
Track 36 cannot be verified as accurate (confidence 3) [2415E0F5], AccurateRip returned [ADA9A094]
Track 37 cannot be verified as accurate (confidence 3) [0621251F], AccurateRip returned [83F0543E]
Track 38 cannot be verified as accurate (confidence 3) [797A5F47], AccurateRip returned [C4026F70]
Track 39 cannot be verified as accurate (confidence 3) [E74B9228], AccurateRip returned [7EFE71A3]

No tracks could be verified as accurate
You may have a different pressing from the one(s) in the database

End of status report



DOWNLOAD
pass: Sutrigolwe

Enjoy!