Tags
Language
Tags
December 2022
Su Mo Tu We Th Fr Sa
27 28 29 30 1 2 3
4 5 6 7 8 9 10
11 12 13 14 15 16 17
18 19 20 21 22 23 24
25 26 27 28 29 30 31

The Hellacopters - Strikes Like Lightning (CD-EP, 2004)

Posted By: Rehabilly
The Hellacopters - Strikes Like Lightning (CD-EP, 2004)

The Hellacopters - Strikes Like Lightning
FLAC+CUE+LOG+Covers or mp3 CBR 320 | 16:33 min | 135 or 38 MB
Garage Rock Revival / Hard Rock

Six songs from Sweden's high energy Rock and Roll soldiers, The Hellacopters. Universal International 2004.

Tracklist:

01. Turn The Wrong Key
02. Take Me On
03. A View From Nowhere
04. Blinded By The Light
05. Fiends & Frankensteins
06. On The Line

Thanks to UllDeDeu

EAC extraction logfile from 22. September 2005, 11:17 for CD
THE HELLACOPTERS / Strikes like lightning

Used drive : SAMSUNG DVD-ROM SD-616E Adapter: 2 ID: 1
Read mode : Secure with NO C2, accurate stream, disable cache
Read offset correction : 12
Overread into Lead-In and Lead-Out : No

Used output format : C:\Archivos de programa\EAC\FLAC.exe (User Defined Encoder)
32 kBit/s
Additional command line options : -6 -V -T "artist=%a" -T "title=%t" -T "album=%g" -T "date=%y" -T "tracknumber=%n" -T "genre=%m" -T "comment=EAC 0.9beta4 / FLAC 1.1.0 q6" %s

Other options :
Fill up missing offset samples with silence : Yes
Delete leading and trailing silent blocks : No
Installed external ASPI interface


Range status and errors
Selected range
Filename C:\Documents and Settings\Propietario\Mis documentos\Mi mъsica\THE.HELLACOPTERS.2004.Strikes.like.lightning\THE HELLACOPTERS - Strikes like lightning.flac.wav

Peak level 99.5 %
Range quality 100.0 %
CRC CAD832CA
Copy OK

No errors occured

End of status report

[Disc ID: 0003eb35-00150dc9-5303e106]
Track [ CRC ] Status
01 [45b8e1a9] (04/04) Accurately ripped as in pressing(s) #1
02 [f4b47413] (04/04) Accurately ripped as in pressing(s) #1
03 [2267679d] (04/04) Accurately ripped as in pressing(s) #1
04 [e64f836e] (04/04) Accurately ripped as in pressing(s) #1
05 [1fb3cfd0] (04/04) Accurately ripped as in pressing(s) #1
06 [ec032d77] (04/04) Accurately ripped as in pressing(s) #1

EAC wavcrc32 v0.22
© ]DichlofoS[ Systems, 2007
thanx to: BakLAN, siro and other beta-testers/contributors!
file opened ok
RIFF header checked ok
please wait while couning checksums…
processing 43795416 samples…
file closed ok
–- used in EAC:
generic: grabbing, "no use…" off [all bytes] : 95072B2E.
generic: grabbing, "no use…" on [word nulsamples l/r] : CAD832CA.
waveditor [word nulsamples l] : A93E3FA3.
–- no used in EAC, only for reference:
byte ignore zeros : 3527CD35.
dword nulsamples : EB6021C5.
–-
time elapsed: 4062 ms

Produced by Chips K. Engineered by Stefan Boman. Mixed by Michael Ilbert.
Recorded at Polar Studios & Romarö Studio, Stockholm, Sweden.
Mastered by George Marino at Sterling Sound, N.Y.C.

• Nicke Andersson - lead and backing vocals, lead and rhythm guitar, percussion
• Robert Dahlqvist - lead and rhythm guitar, background vocals
• Kenny Hakansson - electric bass
• Anders "Boba" Lindström - electric & grand piano, guitars, backing vocals
• Matz Robert Eriksson - drums, background vocals

additional musicians:
- Martin Heredos - piano
- Mattias Barjed - guitars
full information see inside the booklet.

Release Date: November 30, 2004
Format: CD-EP, Original Recording
Label: Universal Music AB
Catalog No.: 986 908 1