Subcategories

Herb Geller - The Herb Geller Sextette (1955) {EmArcy Japan Paper Sleeve UCCM-9109 rel 2002}

Posted By: ruskaval
Herb Geller - The Herb Geller Sextette (1955) {EmArcy Japan Paper Sleeve UCCM-9109 rel 2002}

Herb Geller - The Herb Geller Sextette (1955) {EmArcy Japan Paper Sleeve UCCM-9109 rel 2002}
EAC rip (secure mode) | FLAC (tracks)+CUE+LOG -> 151 Mb | MP3 @320 -> 86 Mb
Full Artwork @ 300 dpi (jpg) -> 12 Mb | 5% repair rar | 24/96 remastering | Mini LP
© 1955, 2002 EmArcy / Mercury / Verve / Universal Music Japan | UCCM-9109
Jazz / Bop / Hard Bop / Saxophone

Here's the second of a series of excellent recordings that he made for Emarcy in the 1950s, all of which have been reissued by Emarcy in Japan. Nice job. Talking about the music this is another special West Coast Jazz gem. The album is from 1955 and the line up is Herb alto sax, his wife Lorraine Geller piano, the exceptional Conte Candoli on trumpet, Red Mitchell and Leroy Vinnegar bass (alternatively), Ziggy Vines tenor sax, Bruz Freeman drums. The music is on the medium tempo side for the most part, a nice relaxed West Coast mood emerges from the notes of this sessions through a solid swing. The program consists in a nice mix of Herb originals and standards by Cole Porter and Hoagy Carmichael plus more. Herb as you may know already, is a Parkerian player with a nice bop melodic sense, exceptional technique, a shining sound and perfect timing. Conte Candoli did a special job here, playing fabulous solos. Probably The Gellers has a little more drive and fire than this Sextette album (but this one has a little more variety in sounds having two more solo horn instruments).

Personnel:
Herb Geller - alto sax
Ziggy Vines - tenor sax
Conte Candoli - trumpet
Lorraine Geller - piano
Red Mitchell - bass on tracks 1,2,6,8
Leroy Vinnegar - bass on tracks 3,4,5,7
Lawrence Marable - drums

Tracks 1,2,6,8: August 19, 1955 Los Angeles, CA
Tracks 3,4,5,7: August 22, 1955 Los Angeles, CA


tracklist:
01 - Outpost Incident
02 - Crazy He Calls Me
03 - Gin For Fuguelhorns
04 - Tardi At Zardi's
05 - Vone Mae
06 - Rockin' Chair
07 - Owl Eyes
08 - You'd Be So Nice To Come Home To

Exact Audio Copy V0.99 prebeta 4 from 23. January 2008

EAC extraction logfile from 10. August 2010, 15:02

Herb Geller / The Herb Geller Sextette

Used drive : _NEC DVD_RW ND-3520A Adapter: 1 ID: 0

Read mode : Secure
Utilize accurate stream : Yes
Defeat audio cache : Yes
Make use of C2 pointers : No

Read offset correction : 48
Overread into Lead-In and Lead-Out : No
Fill up missing offset samples with silence : Yes
Delete leading and trailing silent blocks : No
Null samples used in CRC calculations : Yes
Used interface : Installed external ASPI interface
Gap handling : Appended to previous track

Used output format : User Defined Encoder
Selected bitrate : 1024 kBit/s
Quality : High
Add ID3 tag : No
Command line compressor : C:\Program Files\FLAC\flac.exe
Additional command line options : -8 -V -T "ARTIST=%a" -T "TITLE=%t" -T "ALBUM=%g" -T "DATE=%y" -T "TRACKNUMBER=%n" -T "GENRE=%m" -T "COMMENT=EAC FLAC -8" %s


TOC of the extracted CD

Track | Start | Length | Start sector | End sector
––––––––––––––––––––––––––––-
1 | 0:00.00 | 4:24.20 | 0 | 19819
2 | 4:24.20 | 5:26.47 | 19820 | 44316
3 | 9:50.67 | 3:42.33 | 44317 | 60999
4 | 13:33.25 | 4:33.17 | 61000 | 81491
5 | 18:06.42 | 5:32.58 | 81492 | 106449
6 | 23:39.25 | 4:59.57 | 106450 | 128931
7 | 28:39.07 | 4:25.05 | 128932 | 148811
8 | 33:04.12 | 3:06.13 | 148812 | 162774


Track 1

Filename C:\Documents and Settings\All Users\Documents\Uploads\Ex\Herb Geller - The Herb Geller Sextette (1955) [FLAC] {Emarcy Japanese Re-Issue}\01 - Outpost Incident.wav

Pre-gap length 0:00:02.00

Peak level 77.4 %
Track quality 100.0 %
Test CRC E223B417
Copy CRC E223B417
Track not present in AccurateRip database
Copy OK

Track 2

Filename C:\Documents and Settings\All Users\Documents\Uploads\Ex\Herb Geller - The Herb Geller Sextette (1955) [FLAC] {Emarcy Japanese Re-Issue}\02 - Crazy He Calls Me.wav

Pre-gap length 0:00:01.72

Peak level 78.8 %
Track quality 100.0 %
Test CRC 36328E9F
Copy CRC 36328E9F
Track not present in AccurateRip database
Copy OK

Track 3

Filename C:\Documents and Settings\All Users\Documents\Uploads\Ex\Herb Geller - The Herb Geller Sextette (1955) [FLAC] {Emarcy Japanese Re-Issue}\03 - Gin For Fuguelhorns.wav

Pre-gap length 0:00:00.92

Peak level 80.4 %
Track quality 100.0 %
Test CRC 17DEE61A
Copy CRC 17DEE61A
Track not present in AccurateRip database
Copy OK

Track 4

Filename C:\Documents and Settings\All Users\Documents\Uploads\Ex\Herb Geller - The Herb Geller Sextette (1955) [FLAC] {Emarcy Japanese Re-Issue}\04 - Tardi At Zardi's.wav

Pre-gap length 0:00:01.65

Peak level 77.2 %
Track quality 100.0 %
Test CRC CE0C98C1
Copy CRC CE0C98C1
Track not present in AccurateRip database
Copy OK

Track 5

Filename C:\Documents and Settings\All Users\Documents\Uploads\Ex\Herb Geller - The Herb Geller Sextette (1955) [FLAC] {Emarcy Japanese Re-Issue}\05 - Vone Mae.wav

Pre-gap length 0:00:01.68

Peak level 74.7 %
Track quality 100.0 %
Test CRC 2F88A10B
Copy CRC 2F88A10B
Track not present in AccurateRip database
Copy OK

Track 6

Filename C:\Documents and Settings\All Users\Documents\Uploads\Ex\Herb Geller - The Herb Geller Sextette (1955) [FLAC] {Emarcy Japanese Re-Issue}\06 - Rockin' Chair.wav

Pre-gap length 0:00:01.65

Peak level 87.9 %
Track quality 100.0 %
Test CRC 07765535
Copy CRC 07765535
Track not present in AccurateRip database
Copy OK

Track 7

Filename C:\Documents and Settings\All Users\Documents\Uploads\Ex\Herb Geller - The Herb Geller Sextette (1955) [FLAC] {Emarcy Japanese Re-Issue}\07 - Owl Eyes.wav

Pre-gap length 0:00:00.98

Peak level 83.2 %
Track quality 100.0 %
Test CRC 4BC81973
Copy CRC 4BC81973
Track not present in AccurateRip database
Copy OK

Track 8

Filename C:\Documents and Settings\All Users\Documents\Uploads\Ex\Herb Geller - The Herb Geller Sextette (1955) [FLAC] {Emarcy Japanese Re-Issue}\08 - You'd Be So Nice To Come Home To.wav

Pre-gap length 0:00:02.25

Peak level 91.1 %
Track quality 100.0 %
Test CRC 7FC3DD75
Copy CRC 7FC3DD75
Track not present in AccurateRip database
Copy OK


None of the tracks are present in the AccurateRip database

No errors occurred

End of status report


Herb Geller - The Herb Geller Sextette (1955) {EmArcy Japan Paper Sleeve UCCM-9109 rel 2002}

Herb Geller - The Herb Geller Sextette (1955) {EmArcy Japan Paper Sleeve UCCM-9109 rel 2002}


see also:
Herb Geller - Herb Geller Plays (1954) {Emarcy Japan Paper Sleeve PHCE-3069 rel 1996}



===