Tags
Language
Tags

Howlin Rain - Live Rain (2014) {Agitated Records ‎AGIT027CD}

Posted By: ruskaval
Howlin Rain - Live Rain (2014) {Agitated Records ‎AGIT027CD}

Howlin Rain - Live Rain (2014) {Agitated Records ‎AGIT027CD}
EAC rip (secure mode) | FLAC (tracks)+CUE+LOG -> 483 Mb | MP3 @320 -> 159 Mb
Full Artwork @ 300 dpi (jpg) -> 23 Mb | 5% repair rar
© 2014 Howlin Rain / Agitated Records | ‎AGIT027CD
Rock / Hard Rock / Blues Rock / Boogie Rock / Neo-Psychedelia

Ethan Miller's Howlin' Rain has issued several live offerings in the past, either directly from his blog or in various limited editions on various labels. Live Rain was compiled from several performances on 2012's The Russian Wilds tour, and features the same lineup that appeared on that album: Miller on lead vocals and guitar, Isaiah Mitchell (Earthless) on guitar, bassist Cyrus Comiskey (Drunk Horse), and drummer Raj Ojha. "Phantom in the Valley," "Self-Made Man," "Can't Satisfy Me Now," and "Beneath Wild Wings" all appeared on that record, and they comprise the first four selections here.

Given Rick Rubin's production on the studio offering, these more visceral readings are more incendiary and ragged – especially the blues-fried distortion and guitar interplay in "Self-Made Man" that burns on for over 11 minutes. The live version of "Lord Have Mercy" (from 2008's Magnificent Fiend), with its gospel overtones, is excellent once it moves past the verses. "Hung Out in the Rain," which eventually appeared on 2013's The Griffin EP, is a ballad with nice slide work, but is otherwise unremarkable, an unnecessary and perhaps even unwelcome break from the set's intensity. Things pick up with the soulful, Southern-fried "Calling Lightning, Pt. 2," which features tight, twinned guitar lines, and one of the more outrageous bass solos to appear on a rock record in recent years. The track gives way to a fluid, ripping, "Dancers at the End of Time." (While these are longtime band concert standbys, these versions also eclipse their studio counterparts on Magnificent Fiend.) The closer is a scorching, unhinged reading of "Roll on the Rusted Days," whose original was a high-water mark on Howlin' Rain's self-titled debut in 2006. Miller's moaning and growling in the intro gives way to fist-pumping, furious boogie rock with razor-wire dual lead guitars and double-timed kick drum. It was obviously inspired by the live recordings of Lynyrd Skynyrd, and it blisters. Despite the single misstep, Live Rain is a worthy stopgap between studio recordings.
Howlin Rain - Live Rain (2014) {Agitated Records ‎AGIT027CD}


Musicians:

Ethan Miller (Guitar/Vocals)
Raj Ojha (Drums)
Cyrus Comiskey (Bass)
Joel Robinow (Keyboard/Guitar/Horns/Vocals)
Isaiah Mitchell (Guitar/Vocals)

Tracklist:

1. Phantom In The Valley 8:45
2. Self Made Man 11:04
3. Can't Satisfy Me Now 6:33
4. Beneath Wild Wings 4:19
5. Lord Have Mercy 7:50
6. Hung Out In The Rain 6:06
7. Calling Lightning, Pt. 2 8:16
8. Dancers At The End of Time 5:52
9. Roll On The Rusted Days 7:48

Exact Audio Copy V1.0 beta 3 from 29. August 2011

EAC extraction logfile from 14. September 2014, 23:06

Howlin Rain / Live Rain

Used drive : PLEXTOR DVDR PX-L890SA Adapter: 2 ID: 1

Read mode : Secure
Utilize accurate stream : Yes
Defeat audio cache : Yes
Make use of C2 pointers : No

Read offset correction : 6
Overread into Lead-In and Lead-Out : No
Fill up missing offset samples with silence : Yes
Delete leading and trailing silent blocks : No
Null samples used in CRC calculations : Yes
Used interface : Native Win32 interface for Win NT & 2000
Gap handling : Appended to previous track

Used output format : User Defined Encoder
Selected bitrate : 768 kBit/s
Quality : High
Add ID3 tag : No
Command line compressor : C:\Program Files (x86)\Exact Audio Copy\FLAC\FLAC.EXE
Additional command line options : -8 -V -T "ARTIST=%artist%" -T "TITLE=%title%" -T "ALBUM=%albumtitle%" -T "DATE=%year%" -T "TRACKNUMBER=%tracknr%" -T "TOTALTRACKS=%numtracks%" -T "GENRE=%genre%" -T "ALBUMARTIST=%albumartist%" -T "ALBUM ARTIST=%albumartist%" -T "COMMENT=EAC Secure Mode, Test & Copy, AccurateRip, FLAC -8" %source%


TOC of the extracted CD

Track | Start | Length | Start sector | End sector
––––––––––––––––––––––––––––-
1 | 0:00.00 | 8:45.56 | 0 | 39430
2 | 8:45.56 | 11:04.18 | 39431 | 89248
3 | 19:49.74 | 6:33.37 | 89249 | 118760
4 | 26:23.36 | 4:19.13 | 118761 | 138198
5 | 30:42.49 | 7:50.02 | 138199 | 173450
6 | 38:32.51 | 6:06.70 | 173451 | 200970
7 | 44:39.46 | 8:16.29 | 200971 | 238199
8 | 52:56.00 | 5:52.42 | 238200 | 264641
9 | 58:48.42 | 7:51.05 | 264642 | 299971


Track 1

Filename H:\Flac Rips\01 - Phantom In The Valley.wav

Pre-gap length 0:00:02.00

Peak level 98.8 %
Extraction speed 3.9 X
Track quality 100.0 %
Test CRC 83549F04
Copy CRC 83549F04
Accurately ripped (confidence 2) [41086117] (AR v2)
Copy OK

Track 2

Filename H:\Flac Rips\02 - Self Made Man.wav

Peak level 98.8 %
Extraction speed 4.9 X
Track quality 100.0 %
Test CRC 1230FF2D
Copy CRC 1230FF2D
Accurately ripped (confidence 2) [0AAACFAB] (AR v2)
Copy OK

Track 3

Filename H:\Flac Rips\03 - Can't Satisfy Me Now.wav

Peak level 98.8 %
Extraction speed 5.3 X
Track quality 100.0 %
Test CRC B8971AD3
Copy CRC B8971AD3
Accurately ripped (confidence 2) [4CB02280] (AR v2)
Copy OK

Track 4

Filename H:\Flac Rips\04 - Beneath Wild Wings.wav

Peak level 98.8 %
Extraction speed 5.4 X
Track quality 100.0 %
Test CRC 8700FC17
Copy CRC 8700FC17
Accurately ripped (confidence 2) [1A872F74] (AR v2)
Copy OK

Track 5

Filename H:\Flac Rips\05 - Lord Have Mercy.wav

Peak level 98.8 %
Extraction speed 6.1 X
Track quality 100.0 %
Test CRC 8DCA8C66
Copy CRC 8DCA8C66
Accurately ripped (confidence 2) [75D6E9EA] (AR v2)
Copy OK

Track 6

Filename H:\Flac Rips\06 - Hung Out In The Rain.wav

Peak level 98.8 %
Extraction speed 6.3 X
Track quality 100.0 %
Test CRC 74BDC387
Copy CRC 74BDC387
Accurately ripped (confidence 2) [2D77FAE2] (AR v2)
Copy OK

Track 7

Filename H:\Flac Rips\07 - Calling Lightning Pt 2.wav

Peak level 98.8 %
Extraction speed 6.9 X
Track quality 100.0 %
Test CRC 62F28B80
Copy CRC 62F28B80
Accurately ripped (confidence 2) [4076CEBE] (AR v2)
Copy OK

Track 8

Filename H:\Flac Rips\08 - Dancers At The End Of Time.wav

Peak level 98.8 %
Extraction speed 5.8 X
Track quality 99.9 %
Test CRC C6D0255D
Copy CRC C6D0255D
Accurately ripped (confidence 2) [3197231E] (AR v2)
Copy OK

Track 9

Filename H:\Flac Rips\09 - Roll On The Rusted Days.wav

Peak level 98.8 %
Extraction speed 7.5 X
Track quality 100.0 %
Test CRC 2AADF6C8
Copy CRC 2AADF6C8
Accurately ripped (confidence 2) [DB4A1D01] (AR v2)
Copy OK


All tracks accurately ripped

No errors occurred

End of status report

==== Log checksum 9B882DBDA0949D07A4ABA9C71E992AA8511BEA1C183B1FBE69B0F41085E68795 ====


Howlin Rain - Live Rain (2014) {Agitated Records ‎AGIT027CD}

Howlin Rain - Live Rain (2014) {Agitated Records ‎AGIT027CD}



===