Tags
Language
Tags
February 2023
Su Mo Tu We Th Fr Sa
29 30 31 1 2 3 4
5 6 7 8 9 10 11
12 13 14 15 16 17 18
19 20 21 22 23 24 25
26 27 28 1 2 3 4

Jenny Scheinman - The Rabbi's Lover (2002) {Tzadik TZ 7165}

Posted By: ruskaval
Jenny Scheinman - The Rabbi's Lover (2002) {Tzadik TZ 7165}

Jenny Scheinman - The Rabbi's Lover (2002) {Tzadik TZ 7165}
EAC rip (secure mode) | FLAC (tracks)+CUE+LOG -> 263 Mb | MP3 @320 -> 100 Mb
Full Artwork @ 300 dpi (png) -> 21 Mb | 5% repair rar
© 2002 Tzadik | TZ 7165 | Tzadik Radical Jewish Culture Series
Jazz / Modern Creative / Avant-Garde / Modal Music / Violin

An impressive new recording by one of the most sought-after new violinists in the downtown scene. Born in California, Jenny moved to New York in 1998. Most recently heard in a variety of contexts with Bill Frisell, Jenny has also graced projects by Myra Melford, Vinicius Cantuaria and Nels Cline. Here she leads a dynamic quintet of violin, trumpet, guitar, bass and drum creating a seductive and personal take on Radical Jewish Culture. From traditional tunes to creative originals, The Rabbi’s Lover is both heartfelt and intense, lyrical and driving, a CD you will return to time and time again.
Jenny Scheinman - The Rabbi's Lover (2002) {Tzadik TZ 7165}


Personnel:
Greg Cohen: Bass
Trevor Dunn: Bass
Russ Johnson: Trumpet
Adam Levy: Guitar
Jenny Scheinman: Violin
Kenny Wollesen: Drums

Jenny Scheinman - The Rabbi's Lover (2002) {Tzadik TZ 7165}


Tracklist:
1. The Rabbi’s Lover
2. Dance Party 1929
3. Seating of the Bride
4. Firn De Mekhutonim Aheym
5. The Shofar Place
6. Rafi’s Song
7. Diaspora Metaphor
8. Motherlap
9. The Burro

Exact Audio Copy V0.99 prebeta 5 from 4. May 2009

EAC extraction logfile from 18. August 2009, 20:30

Jenny Scheinman / The Rabbi's Lover

Used drive : TSSTcorpCD/DVDW SH-S183L Adapter: 3 ID: 0

Read mode : Secure
Utilize accurate stream : Yes
Defeat audio cache : Yes
Make use of C2 pointers : No

Read offset correction : 6
Overread into Lead-In and Lead-Out : No
Fill up missing offset samples with silence : Yes
Delete leading and trailing silent blocks : No
Null samples used in CRC calculations : Yes
Used interface : Native Win32 interface for Win NT & 2000
Gap handling : Appended to previous track

Used output format : User Defined Encoder
Selected bitrate : 128 kBit/s
Quality : High
Add ID3 tag : Yes
Command line compressor : C:\Program Files\FLAC\flac.exe
Additional command line options : -V -8 -T "artist=%a" -T "title=%t" -T "album=%g" -T "date=%y" -T "tracknumber=%n" -T "genre=%m" %s


TOC of the extracted CD

Track | Start | Length | Start sector | End sector
––––––––––––––––––––––––––––-
1 | 0:00.00 | 6:26.14 | 0 | 28963
2 | 6:26.14 | 5:25.62 | 28964 | 53400
3 | 11:52.01 | 5:55.52 | 53401 | 80077
4 | 17:47.53 | 4:38.42 | 80078 | 100969
5 | 22:26.20 | 8:27.14 | 100970 | 139008
6 | 30:53.34 | 2:14.00 | 139009 | 149058
7 | 33:07.34 | 1:21.66 | 149059 | 155199
8 | 34:29.25 | 6:13.68 | 155200 | 183242
9 | 40:43.18 | 2:20.10 | 183243 | 193752


Track 1

Filename E:\rips\Jenny Scheinman - The Rabbi's Lover (2002) [FLAC]\01 - The Rabbi's Lover.wav

Pre-gap length 0:00:02.00

Peak level 98.8 %
Track quality 99.9 %
Test CRC F30FD83B
Copy CRC F30FD83B
Cannot be verified as accurate (confidence 1) [8F9A7D78], AccurateRip returned [24DDEB33]
Copy OK

Track 2

Filename E:\rips\Jenny Scheinman - The Rabbi's Lover (2002) [FLAC]\02 - Dance Party 1929.wav

Pre-gap length 0:00:02.30

Peak level 98.8 %
Track quality 100.0 %
Test CRC 859220D3
Copy CRC 859220D3
Cannot be verified as accurate (confidence 1) [E541076C], AccurateRip returned [77CD64C4]
Copy OK

Track 3

Filename E:\rips\Jenny Scheinman - The Rabbi's Lover (2002) [FLAC]\03 - Seating Of The Bride.wav

Pre-gap length 0:00:01.92

Peak level 98.8 %
Track quality 100.0 %
Test CRC 05D7D283
Copy CRC 05D7D283
Cannot be verified as accurate (confidence 1) [7742BADA], AccurateRip returned [5412974B]
Copy OK

Track 4

Filename E:\rips\Jenny Scheinman - The Rabbi's Lover (2002) [FLAC]\04 - Firn De Mekhutonim Aheym.wav

Peak level 98.8 %
Track quality 100.0 %
Test CRC 38EBEAB5
Copy CRC 38EBEAB5
Cannot be verified as accurate (confidence 1) [F1428454], AccurateRip returned [4AF0189C]
Copy OK

Track 5

Filename E:\rips\Jenny Scheinman - The Rabbi's Lover (2002) [FLAC]\05 - The Shofar Place.wav

Peak level 98.8 %
Track quality 100.0 %
Test CRC C1F3A32F
Copy CRC C1F3A32F
Cannot be verified as accurate (confidence 1) [B1662C75], AccurateRip returned [AC5AC824]
Copy OK

Track 6

Filename E:\rips\Jenny Scheinman - The Rabbi's Lover (2002) [FLAC]\06 - Rafi's Song.wav

Pre-gap length 0:00:02.44

Peak level 94.8 %
Track quality 100.0 %
Test CRC AAB717CA
Copy CRC AAB717CA
Cannot be verified as accurate (confidence 1) [7C45EF98], AccurateRip returned [E742E952]
Copy OK

Track 7

Filename E:\rips\Jenny Scheinman - The Rabbi's Lover (2002) [FLAC]\07 - Diaspora Metaphor.wav

Peak level 98.8 %
Track quality 100.0 %
Test CRC 7BFABBC6
Copy CRC 7BFABBC6
Cannot be verified as accurate (confidence 1) [90A211D0], AccurateRip returned [3F4EB3BA]
Copy OK

Track 8

Filename E:\rips\Jenny Scheinman - The Rabbi's Lover (2002) [FLAC]\08 - Motherlap.wav

Pre-gap length 0:00:01.85

Peak level 98.8 %
Track quality 99.9 %
Test CRC 8C592495
Copy CRC 8C592495
Cannot be verified as accurate (confidence 1) [855EB778], AccurateRip returned [F31EFA0D]
Copy OK

Track 9

Filename E:\rips\Jenny Scheinman - The Rabbi's Lover (2002) [FLAC]\09 - The Burro.wav

Pre-gap length 0:00:01.97

Peak level 78.1 %
Track quality 99.9 %
Test CRC BA96DF98
Copy CRC BA96DF98
Cannot be verified as accurate (confidence 1) [9FA0FB51], AccurateRip returned [72928594]
Copy OK


No tracks could be verified as accurate
You may have a different pressing from the one(s) in the database

No errors occurred

End of status report


Jenny Scheinman - The Rabbi's Lover (2002) {Tzadik TZ 7165}


see more Jenny Scheinman…
More Tzadik…


===