Subcategories

Jerry Lee Lewis - I-40 Country (1973) & Odd Man In (1975) {BGO Records BGOCD1216 Digitally Remastered rel 2015}

Posted By: ruskaval
Jerry Lee Lewis - I-40 Country (1973) & Odd Man In (1975) {BGO Records BGOCD1216 Digitally Remastered rel 2015}

Jerry Lee Lewis - I-40 Country (1973) & Odd Man In (1975) {BGO Records BGOCD1216 Digitally Remastered rel 2015}
EAC rip (secure mode) | FLAC+CUE+LOG -> 366 Mb | MP3 @320 -> 147 Mb
Full Artwork @ 300 dpi (jpg) -> 50 Mb | 5% repair rar
© 1973, 1975, 2015 Phonogram Inc. / BGO Records | BGOCD1216
Rock & Roll / Rockabilly / Honky Tonk / Country

BGO's 2015 two-fer pairs two mid-'70s albums from Jerry Lee Lewis – 1974's I-40 Country and 1975's Odd Man In – on a single CD. Jerry Lee Lewis didn't get much of a boost out of his 1973 return to rock & roll – a revival arriving on two separate LPs, one recorded in England (The Session) and one back home (Southern Roots) – so he slid back to country, scoring a hit with "Sometimes a Memory Ain't Enough" from the album of the same name. I-40 Country arrived a year later, easing into stores in 1974 under the guise of a truck-driving country LP. While these 11 songs do sound good on the open road, none of them are about big rigs or highways, nor do they roll along to a Bakersfield beat. No, they're straight-ahead barroom weepers punctuated by the very occasional novelty – so occasional, it doesn't extend beyond "Alcohol of Fame."

The opening pair of "Tell Tale Signs" and "He Can't Fill My Shoes" were hits – reaching 18 and eight, respectively – but the attention is often drawn to "Room Full of Roses," a version that coincided with a version his cousin Mickey Gilley turned into a career-making hit. Gilley sounds invested in his version but Jerry Lee sounds as if he's singing through a hangover, a (possible?) affectation that is also the key to the appeal of I-40 Country. Not one of his stronger records, either in terms of content or performance, it nevertheless has a bleary-eyed charm – a record for mornings that arrived too quickly or road trips that are lasting hours too long. Oddly enough, 1975's Odd Man In didn't generate a single hit. Both "A Damn Good Country Song" and "Don't Boogie Woogie" couldn't manage to make it into the Country Top 40, a stumble that maybe could be chalked up to the Mickey Gilley mania that started to sweep the country in 1975 – Andrew McRae argues as much in the liner notes to BGO's two-fer reissue of I-40 Country and Odd Man In – but it's still kind of a shock to realize that a record as lively as this didn't gain much traction upon its release. It's heavy on boogie-woogie but finds plenty of place for ballads, and Lewis seems invested in his performances, too. Maybe this is because he's singing a lot of old standards, twisting them into songs that suit his bleary, defiant mood – "Shake, Rattle & Roll" rolls hard, "Goodnight Irene" and "Crawdad Song" swing, as does "Your Cheatin' Heart" – and he leans into the midtempo barroom country that dominates the record, turning it into something ornery but comforting: cantankerous country from one of the genre's kings.
Jerry Lee Lewis - I-40 Country (1973) & Odd Man In (1975) {BGO Records BGOCD1216 Digitally Remastered rel 2015}


Track Listing:
I-40 Country (1973)

1. He Can't Fill My Shoes
2. Tell Tale Signs
3. A Picture From Life's Other Side
4. I Hate Goodbyes
5. I've Forgot More About You (Than He'll Ever Know)
6. Tomorrow's Taking Baby Away
7. Cold, Cold Morning Light
8. The Alcohol Of Fame
9. Where Would I Be
10. Bluer Words
11. Room Full Of Roses

Odd Man In (1975)
12. Don't Boogie Woogie (When You Say Your Prayers Tonight)
13. Shake, Rattle And Roll
14. You Ought To See My Mind
15. I Don't Want To Be Lonely Tonight
16. That Kind Of Fool
17. Goodnight Irene
18. A Damn Good Country Song
19. Jerry's Place
20. When I Take My Vacation In Heaven
21. Crawdad Song
22. Your Cheatin' Heart

Exact Audio Copy V1.0 beta 6 from 9. April 2015

EAC extraction logfile from 6. February 2016, 22:37

Jerry Lee Lewis / I-40 Country / Odd Man In

Used drive : TSSTcorpCDDVDW SH-224BB Adapter: 1 ID: 0

Read mode : Secure
Utilize accurate stream : Yes
Defeat audio cache : Yes
Make use of C2 pointers : No

Read offset correction : 6
Overread into Lead-In and Lead-Out : No
Fill up missing offset samples with silence : Yes
Delete leading and trailing silent blocks : No
Null samples used in CRC calculations : Yes
Used interface : Native Win32 interface for Win NT & 2000
Gap handling : Appended to previous track

Used output format : User Defined Encoder
Selected bitrate : 768 kBit/s
Quality : High
Add ID3 tag : No
Command line compressor : C:\Program Files (x86)\Exact Audio Copy\Flac\flac.exe
Additional command line options : -8 -V -T "ARTIST=%artist%" -T "TITLE=%title%" -T "ALBUM=%albumtitle%" -T "DATE=%year%" -T "TRACKNUMBER=%tracknr%" -T "TOTALTRACKS=%numtracks%" -T "GENRE=%genre%" -T "ALBUMARTIST=%albumartist%" -T "ALBUM ARTIST=%albumartist%" -T "COMMENT=EAC Secure Mode, Test & Copy, AccurateRip, FLAC -8" %source%


TOC of the extracted CD

Track | Start | Length | Start sector | End sector
––––––––––––––––––––––––––––-
1 | 0:00.00 | 2:36.00 | 0 | 11699
2 | 2:36.00 | 2:28.05 | 11700 | 22804
3 | 5:04.05 | 3:42.43 | 22805 | 39497
4 | 8:46.48 | 2:33.48 | 39498 | 51020
5 | 11:20.21 | 3:06.25 | 51021 | 64995
6 | 14:26.46 | 3:19.46 | 64996 | 79966
7 | 17:46.17 | 3:10.01 | 79967 | 94217
8 | 20:56.18 | 2:30.09 | 94218 | 105476
9 | 23:26.27 | 3:04.33 | 105477 | 119309
10 | 26:30.60 | 2:19.63 | 119310 | 129797
11 | 28:50.48 | 2:36.47 | 129798 | 141544
12 | 31:27.20 | 2:37.29 | 141545 | 153348
13 | 34:04.49 | 2:56.67 | 153349 | 166615
14 | 37:01.41 | 2:25.10 | 166616 | 177500
15 | 39:26.51 | 3:16.30 | 177501 | 192230
16 | 42:43.06 | 2:27.61 | 192231 | 203316
17 | 45:10.67 | 3:43.62 | 203317 | 220103
18 | 48:54.54 | 2:08.31 | 220104 | 229734
19 | 51:03.10 | 2:34.08 | 229735 | 241292
20 | 53:37.18 | 3:07.67 | 241293 | 255384
21 | 56:45.10 | 3:09.53 | 255385 | 269612
22 | 59:54.63 | 2:45.56 | 269613 | 282043


Track 1

Filename C:\Rips\Jerry Lee Lewis - I-40 Country (1973) & Odd Man In (1975) [FLAC] (2on1 2015)\01 - He Can't Fill My Shoes.wav

Pre-gap length 0:00:02.00

Peak level 89.1 %
Extraction speed 1.4 X
Track quality 99.9 %
Test CRC D7DEB20B
Copy CRC D7DEB20B
Track not present in AccurateRip database
Copy OK

Track 2

Filename C:\Rips\Jerry Lee Lewis - I-40 Country (1973) & Odd Man In (1975) [FLAC] (2on1 2015)\02 - Tell Tale Signs.wav

Pre-gap length 0:00:02.58

Peak level 89.1 %
Extraction speed 1.4 X
Track quality 99.9 %
Test CRC A51B150B
Copy CRC A51B150B
Track not present in AccurateRip database
Copy OK

Track 3

Filename C:\Rips\Jerry Lee Lewis - I-40 Country (1973) & Odd Man In (1975) [FLAC] (2on1 2015)\03 - A Picture From Life's Other Side.wav

Pre-gap length 0:00:02.28

Peak level 89.1 %
Extraction speed 1.9 X
Track quality 100.0 %
Test CRC E44D202E
Copy CRC E44D202E
Track not present in AccurateRip database
Copy OK

Track 4

Filename C:\Rips\Jerry Lee Lewis - I-40 Country (1973) & Odd Man In (1975) [FLAC] (2on1 2015)\04 - I Hate Goodbyes.wav

Pre-gap length 0:00:01.68

Peak level 89.1 %
Extraction speed 1.9 X
Track quality 100.0 %
Test CRC 74F990C6
Copy CRC 74F990C6
Track not present in AccurateRip database
Copy OK

Track 5

Filename C:\Rips\Jerry Lee Lewis - I-40 Country (1973) & Odd Man In (1975) [FLAC] (2on1 2015)\05 - I've Forgot More About You (Than He'll Ever Know).wav

Pre-gap length 0:00:02.30

Peak level 89.1 %
Extraction speed 2.1 X
Track quality 100.0 %
Test CRC B5681ECD
Copy CRC B5681ECD
Track not present in AccurateRip database
Copy OK

Track 6

Filename C:\Rips\Jerry Lee Lewis - I-40 Country (1973) & Odd Man In (1975) [FLAC] (2on1 2015)\06 - Tomorrow's Taking Baby Away.wav

Pre-gap length 0:00:03.60

Peak level 87.0 %
Extraction speed 2.2 X
Track quality 100.0 %
Test CRC 2182C883
Copy CRC 2182C883
Track not present in AccurateRip database
Copy OK

Track 7

Filename C:\Rips\Jerry Lee Lewis - I-40 Country (1973) & Odd Man In (1975) [FLAC] (2on1 2015)\07 - Cold, Cold Morning Light.wav

Pre-gap length 0:00:02.61

Peak level 87.0 %
Extraction speed 2.3 X
Track quality 100.0 %
Test CRC 3A084259
Copy CRC 3A084259
Track not present in AccurateRip database
Copy OK

Track 8

Filename C:\Rips\Jerry Lee Lewis - I-40 Country (1973) & Odd Man In (1975) [FLAC] (2on1 2015)\08 - The Alcohol Of Fame.wav

Pre-gap length 0:00:02.70

Peak level 87.0 %
Extraction speed 2.3 X
Track quality 100.0 %
Test CRC 94B75DA0
Copy CRC 94B75DA0
Track not present in AccurateRip database
Copy OK

Track 9

Filename C:\Rips\Jerry Lee Lewis - I-40 Country (1973) & Odd Man In (1975) [FLAC] (2on1 2015)\09 - Where Would I Be.wav

Pre-gap length 0:00:02.67

Peak level 87.0 %
Extraction speed 2.5 X
Track quality 100.0 %
Test CRC 94D8B65B
Copy CRC 94D8B65B
Track not present in AccurateRip database
Copy OK

Track 10

Filename C:\Rips\Jerry Lee Lewis - I-40 Country (1973) & Odd Man In (1975) [FLAC] (2on1 2015)\10 - Bluer Words.wav

Pre-gap length 0:00:03.26

Peak level 87.0 %
Extraction speed 2.4 X
Track quality 100.0 %
Test CRC 7A7092D4
Copy CRC 7A7092D4
Track not present in AccurateRip database
Copy OK

Track 11

Filename C:\Rips\Jerry Lee Lewis - I-40 Country (1973) & Odd Man In (1975) [FLAC] (2on1 2015)\11 - Room Full Of Roses.wav

Pre-gap length 0:00:02.24

Peak level 87.0 %
Extraction speed 2.6 X
Track quality 100.0 %
Test CRC 17B784D2
Copy CRC 17B784D2
Track not present in AccurateRip database
Copy OK

Track 12

Filename C:\Rips\Jerry Lee Lewis - I-40 Country (1973) & Odd Man In (1975) [FLAC] (2on1 2015)\12 - Don't Boogie Woogie (When You Say Your Prayers Tonight).wav

Pre-gap length 0:00:03.22

Peak level 86.2 %
Extraction speed 1.9 X
Track quality 99.9 %
Test CRC AA84258B
Copy CRC AA84258B
Track not present in AccurateRip database
Copy OK

Track 13

Filename C:\Rips\Jerry Lee Lewis - I-40 Country (1973) & Odd Man In (1975) [FLAC] (2on1 2015)\13 - Shake, Rattle And Roll.wav

Pre-gap length 0:00:02.71

Peak level 88.3 %
Extraction speed 2.8 X
Track quality 100.0 %
Test CRC 850E09C9
Copy CRC 850E09C9
Track not present in AccurateRip database
Copy OK

Track 14

Filename C:\Rips\Jerry Lee Lewis - I-40 Country (1973) & Odd Man In (1975) [FLAC] (2on1 2015)\14 - You Ought To See My Mind.wav

Pre-gap length 0:00:03.34

Peak level 86.1 %
Extraction speed 2.8 X
Track quality 100.0 %
Test CRC AF2524DB
Copy CRC AF2524DB
Track not present in AccurateRip database
Copy OK

Track 15

Filename C:\Rips\Jerry Lee Lewis - I-40 Country (1973) & Odd Man In (1975) [FLAC] (2on1 2015)\15 - I Don't Want To Be Lonely Tonight.wav

Pre-gap length 0:00:03.30

Peak level 83.9 %
Extraction speed 3.0 X
Track quality 100.0 %
Test CRC DA446C5D
Copy CRC DA446C5D
Track not present in AccurateRip database
Copy OK

Track 16

Filename C:\Rips\Jerry Lee Lewis - I-40 Country (1973) & Odd Man In (1975) [FLAC] (2on1 2015)\16 - That Kind Of Fool.wav

Pre-gap length 0:00:04.06

Peak level 84.1 %
Extraction speed 2.9 X
Track quality 100.0 %
Test CRC 7CA803E3
Copy CRC 7CA803E3
Track not present in AccurateRip database
Copy OK

Track 17

Filename C:\Rips\Jerry Lee Lewis - I-40 Country (1973) & Odd Man In (1975) [FLAC] (2on1 2015)\17 - Goodnight Irene.wav

Pre-gap length 0:00:03.61

Peak level 85.4 %
Extraction speed 3.2 X
Track quality 100.0 %
Test CRC 885BA4CA
Copy CRC 885BA4CA
Track not present in AccurateRip database
Copy OK

Track 18

Filename C:\Rips\Jerry Lee Lewis - I-40 Country (1973) & Odd Man In (1975) [FLAC] (2on1 2015)\18 - A Damn Good Country Song.wav

Pre-gap length 0:00:03.73

Peak level 86.6 %
Extraction speed 2.9 X
Track quality 100.0 %
Test CRC CD683328
Copy CRC CD683328
Track not present in AccurateRip database
Copy OK

Track 19

Filename C:\Rips\Jerry Lee Lewis - I-40 Country (1973) & Odd Man In (1975) [FLAC] (2on1 2015)\19 - Jerry's Place.wav

Pre-gap length 0:00:02.58

Peak level 85.9 %
Extraction speed 3.1 X
Track quality 100.0 %
Test CRC B9BEFC4E
Copy CRC B9BEFC4E
Track not present in AccurateRip database
Copy OK

Track 20

Filename C:\Rips\Jerry Lee Lewis - I-40 Country (1973) & Odd Man In (1975) [FLAC] (2on1 2015)\20 - When I Take My Vacation In Heaven.wav

Pre-gap length 0:00:05.61

Peak level 90.0 %
Extraction speed 2.3 X
Track quality 99.9 %
Test CRC 156427B2
Copy CRC 156427B2
Track not present in AccurateRip database
Copy OK

Track 21

Filename C:\Rips\Jerry Lee Lewis - I-40 Country (1973) & Odd Man In (1975) [FLAC] (2on1 2015)\21 - Crawdad Song.wav

Pre-gap length 0:00:02.43

Peak level 85.6 %
Extraction speed 3.3 X
Track quality 100.0 %
Test CRC BDD16520
Copy CRC BDD16520
Track not present in AccurateRip database
Copy OK

Track 22

Filename C:\Rips\Jerry Lee Lewis - I-40 Country (1973) & Odd Man In (1975) [FLAC] (2on1 2015)\22 - Your Cheatin' Heart.wav

Pre-gap length 0:00:06.25

Peak level 87.5 %
Extraction speed 3.3 X
Track quality 100.0 %
Test CRC 3959F7B4
Copy CRC 3959F7B4
Track not present in AccurateRip database
Copy OK


None of the tracks are present in the AccurateRip database

No errors occurred

End of status report

–– CUETools DB Plugin V2.1.6

[CTDB TOCID: 6gos_spI6_U2aGlPlfbnp3fPIkg-] disk not present in database
Submit result: 6gos_spI6_U2aGlPlfbnp3fPIkg- has been uploaded


==== Log checksum 136A9210B8C1021FFC0D5739D3E7C02126FDB2BF4C0ECDC53565FC6F15AB9F5B ====


Jerry Lee Lewis - I-40 Country (1973) & Odd Man In (1975) {BGO Records BGOCD1216 Digitally Remastered rel 2015}

Jerry Lee Lewis - I-40 Country (1973) & Odd Man In (1975) {BGO Records BGOCD1216 Digitally Remastered rel 2015}


see more Jerry Lee Lewis…

NEXT -> more Jerry Lee Lewis on the way…


===