Subcategories

John Holt - 4000 Volts Of Holt: The Classic Albums Collection (2016) {2 CD Set Trojan Records TJDCD547 rec 1974-1976}

Posted By: ruskaval
John Holt - 4000 Volts Of Holt: The Classic Albums Collection (2016) {2 CD Set Trojan Records TJDCD547 rec 1974-1976}

John Holt - 4000 Volts Of Holt: The Classic Albums Collection (2016) {2 CD Set Trojan Records TJDCD547 rec 1974-1976}
EAC rip (secure mode) | FLAC (tracks)+CUE+LOG -> 999 Mb | MP3 @320 -> 359 Mb
Full Artwork @ 300 dpi (jpg) -> 79 Mb | 5% repair rar
© 1974-76, 2016 Trojan Records / BMG / Sanctuary Records | TJDCD547
Reggae / Reggae Pop / Smooth Reggae / Rocksteady

In 1972, one of Jamaica's most popular and successful singers, John Holt, teamed up with British-born record producer, Tony Ashfield to create a style of reggae aimed at appealing to music listeners of all ages and colours throughout the world.

By combining Jamaican rhythms with sophisticated western arrangements, the pair succeeded in their aim, producing an album that exceeded all expectations. ‘The Further You Look’ set the standard for what later became widely known as ‘pop reggae’ and quickly became a must-have album for a broad spectrum of record buyers, selling in vast numbers amongst both black and white communities.
John Holt - 4000 Volts Of Holt: The Classic Albums Collection (2016) {2 CD Set Trojan Records TJDCD547 rec 1974-1976}

The follow-up LP, ‘1000 Volts Of Holt’, which included the UK chart hit, ‘Help Me Make It Through The Night’ proved even more popular, with the collection becoming Trojan’s most successful single artist album to date.
Holt and Ashfield subsequently collaborated on a further two best-selling long players, ‘Dusty Roads’ and ‘2000 Volts Of Holt’, with all four of these hugely popular and influential albums finally brought together on this one essential 2CD package.

Includes UK Top 5 hit, ‘Help Me Make It Through The Night’.
1000 Volts continues to be the best selling album in the Trojan catalogue.
First time all 4 albums in the ‘Volts’ series have been collected on a single package.
John Holt - 4000 Volts Of Holt: The Classic Albums Collection (2016) {2 CD Set Trojan Records TJDCD547 rec 1974-1976}


tracklist:
CD1

1 The Further You Look (The Less You See)
2 I Sing My Song
3 Never Let Me Go
4 Saving My Love
5 I Won't Come In (While He's Here)
6 Just Let Me Know
7 I'm a Rover
8 Open the Door
9 I'll Be There
10 Memories By the Score
11 I'll Always Love You
12 I Wanna Dance (May I Have This Dance)
13 Never Never Never
14 Morning of My Life
15 Stoned Out of My Mind
16 Baby I'm a Want You
17 Help Me Make It Through the Night
18 Mr. Bojangles
19 I'd Love You to Want Me
20 Killing Me Softly With Her Song
21 You Baby
22 Too Much Love
23 The Girl from Ipanema
24 Which Way You Going Baby

John Holt - 4000 Volts Of Holt: The Classic Albums Collection (2016) {2 CD Set Trojan Records TJDCD547 rec 1974-1976}


CD2
1 Tell Me Why
2 After All
3 I Don't Mind
4 Not So Close
5 I'll Light Your Fire
6 You'd Better Take Time
7 Dusty Roads
8 These Old Memories
9 In the Middle of the Night
10 Make This Young Lady Mine
11 I Won't Let You Forget
12 The Same Old Thing
13 Doctor Love
14 Yester-Me, Yester-You, Yesterday
15 Touch Me in the Morning
16 Keep On Moving
17 I Will
18 Alfie
19 I'll Take a Melody
20 My Guiding Star
21 On a Clear Day You Can See Forever
22 Peace and Love
23 Take My Heart Away Teresa
24 For the Love of You

John Holt - 4000 Volts Of Holt: The Classic Albums Collection (2016) {2 CD Set Trojan Records TJDCD547 rec 1974-1976}


Exact Audio Copy V1.0 beta 3 from 29. August 2011

EAC extraction logfile from 14. June 2016, 23:56

John Holt / 4000 Volts Of Holt CD1

Used drive : TSSTcorpCDDVDW SN-208DN Adapter: 0 ID: 0

Read mode : Secure
Utilize accurate stream : Yes
Defeat audio cache : Yes
Make use of C2 pointers : No

Read offset correction : 6
Overread into Lead-In and Lead-Out : No
Fill up missing offset samples with silence : Yes
Delete leading and trailing silent blocks : No
Null samples used in CRC calculations : Yes
Used interface : Native Win32 interface for Win NT & 2000
Gap handling : Appended to previous track

Used output format : User Defined Encoder
Selected bitrate : 128 kBit/s
Quality : High
Add ID3 tag : No
Command line compressor : C:\Program Files (x86)\Exact Audio Copy\Flac\flac.exe
Additional command line options : -8 -V -T "ARTIST=%artist%" -T "TITLE=%title%" -T "ALBUM=%albumtitle%" -T "DATE=%year%" -T "TRACKNUMBER=%tracknr%" -T "TOTALTRACKS=%numtracks%" -T "GENRE=%genre%" -T "ALBUMARTIST=%albumartist%" -T "ALBUM ARTIST=%albumartist%" -T "COMMENT=EAC Secure Mode, Test & Copy, AccurateRip, FLAC -8" %source%


TOC of the extracted CD

Track | Start | Length | Start sector | End sector
––––––––––––––––––––––––––––-
1 | 0:00.00 | 3:09.01 | 0 | 14175
2 | 3:09.01 | 3:27.02 | 14176 | 29702
3 | 6:36.03 | 3:09.36 | 29703 | 43913
4 | 9:45.39 | 3:27.31 | 43914 | 59469
5 | 13:12.70 | 2:32.57 | 59470 | 70926
6 | 15:45.52 | 2:44.29 | 70927 | 83255
7 | 18:30.06 | 2:17.20 | 83256 | 93550
8 | 20:47.26 | 2:41.35 | 93551 | 105660
9 | 23:28.61 | 3:13.11 | 105661 | 120146
10 | 26:41.72 | 3:26.72 | 120147 | 135668
11 | 30:08.69 | 2:37.58 | 135669 | 147501
12 | 32:46.52 | 2:48.74 | 147502 | 160175
13 | 35:35.51 | 3:58.05 | 160176 | 178030
14 | 39:33.56 | 2:51.22 | 178031 | 190877
15 | 42:25.03 | 3:12.16 | 190878 | 205293
16 | 45:37.19 | 2:19.41 | 205294 | 215759
17 | 47:56.60 | 3:08.51 | 215760 | 229910
18 | 51:05.36 | 5:20.31 | 229911 | 253941
19 | 56:25.67 | 3:16.45 | 253942 | 268686
20 | 59:42.37 | 3:55.19 | 268687 | 286330
21 | 63:37.56 | 3:18.13 | 286331 | 301193
22 | 66:55.69 | 2:41.71 | 301194 | 313339
23 | 69:37.65 | 2:44.54 | 313340 | 325693
24 | 72:22.44 | 3:43.44 | 325694 | 342462


Track 1

Filename C:\AddisistheGodFlac\01 - The Further You Look.wav

Pre-gap length 0:00:02.00

Peak level 97.0 %
Extraction speed 2.3 X
Track quality 100.0 %
Test CRC 96916EAF
Copy CRC 96916EAF
Track not present in AccurateRip database
Copy OK

Track 2

Filename C:\AddisistheGodFlac\02 - Sing My Song.wav

Pre-gap length 0:00:01.58

Peak level 92.0 %
Extraction speed 2.6 X
Track quality 100.0 %
Test CRC D905DC4F
Copy CRC D905DC4F
Track not present in AccurateRip database
Copy OK

Track 3

Filename C:\AddisistheGodFlac\03 - Never Let Me Go.wav

Pre-gap length 0:00:01.58

Peak level 97.0 %
Extraction speed 2.8 X
Track quality 100.0 %
Test CRC DDF7D7B5
Copy CRC DDF7D7B5
Track not present in AccurateRip database
Copy OK

Track 4

Filename C:\AddisistheGodFlac\04 - Saving My Love.wav

Pre-gap length 0:00:01.58

Peak level 97.0 %
Extraction speed 3.0 X
Track quality 100.0 %
Test CRC B85A5783
Copy CRC B85A5783
Track not present in AccurateRip database
Copy OK

Track 5

Filename C:\AddisistheGodFlac\05 - I Won't Come In.wav

Pre-gap length 0:00:01.58

Peak level 97.0 %
Extraction speed 3.0 X
Track quality 100.0 %
Test CRC 0F226D63
Copy CRC 0F226D63
Track not present in AccurateRip database
Copy OK

Track 6

Filename C:\AddisistheGodFlac\06 - Just Let Me Know.wav

Pre-gap length 0:00:01.58

Peak level 97.0 %
Extraction speed 3.1 X
Track quality 100.0 %
Test CRC 82E7CC41
Copy CRC 82E7CC41
Track not present in AccurateRip database
Copy OK

Track 7

Filename C:\AddisistheGodFlac\07 - I'm A Rover.wav

Pre-gap length 0:00:01.58

Peak level 95.2 %
Extraction speed 3.1 X
Track quality 100.0 %
Test CRC 4436A406
Copy CRC 4436A406
Track not present in AccurateRip database
Copy OK

Track 8

Filename C:\AddisistheGodFlac\08 - Open The Door.wav

Pre-gap length 0:00:01.58

Peak level 97.0 %
Extraction speed 3.3 X
Track quality 100.0 %
Test CRC E55B8C04
Copy CRC E55B8C04
Track not present in AccurateRip database
Copy OK

Track 9

Filename C:\AddisistheGodFlac\09 - I'll Be There.wav

Pre-gap length 0:00:01.58

Peak level 97.0 %
Extraction speed 3.5 X
Track quality 100.0 %
Test CRC FC4546B3
Copy CRC FC4546B3
Track not present in AccurateRip database
Copy OK

Track 10

Filename C:\AddisistheGodFlac\10 - Memories By The Score.wav

Pre-gap length 0:00:01.58

Peak level 97.0 %
Extraction speed 3.7 X
Track quality 100.0 %
Test CRC 033E068F
Copy CRC 033E068F
Track not present in AccurateRip database
Copy OK

Track 11

Filename C:\AddisistheGodFlac\11 - I'll Always Love You.wav

Pre-gap length 0:00:01.58

Peak level 97.0 %
Extraction speed 3.7 X
Track quality 100.0 %
Test CRC 0243147D
Copy CRC 0243147D
Track not present in AccurateRip database
Copy OK

Track 12

Filename C:\AddisistheGodFlac\12 - I Wanna Dance.wav

Pre-gap length 0:00:01.58

Peak level 97.0 %
Extraction speed 3.2 X
Track quality 99.9 %
Test CRC 46201B53
Copy CRC 46201B53
Track not present in AccurateRip database
Copy OK

Track 13

Filename C:\AddisistheGodFlac\13 - Never Never Never.wav

Pre-gap length 0:00:01.58

Peak level 97.0 %
Extraction speed 3.7 X
Track quality 99.9 %
Test CRC 0E986BC8
Copy CRC 0E986BC8
Track not present in AccurateRip database
Copy OK

Track 14

Filename C:\AddisistheGodFlac\14 - Morning Of My Life.wav

Pre-gap length 0:00:01.58

Peak level 97.0 %
Extraction speed 3.4 X
Track quality 99.9 %
Test CRC 9793ECC1
Copy CRC 9793ECC1
Track not present in AccurateRip database
Copy OK

Track 15

Filename C:\AddisistheGodFlac\15 - Stoned Out Of My Mind.wav

Pre-gap length 0:00:01.58

Peak level 97.0 %
Extraction speed 3.7 X
Track quality 99.9 %
Test CRC 935A52E2
Copy CRC 935A52E2
Track not present in AccurateRip database
Copy OK

Track 16

Filename C:\AddisistheGodFlac\16 - Baby I'm A Ant You.wav

Pre-gap length 0:00:01.58

Peak level 97.0 %
Extraction speed 4.1 X
Track quality 100.0 %
Test CRC D7D144AF
Copy CRC D7D144AF
Track not present in AccurateRip database
Copy OK

Track 17

Filename C:\AddisistheGodFlac\17 - Help Me Make It Though The Night.wav

Pre-gap length 0:00:01.58

Peak level 97.0 %
Extraction speed 4.4 X
Track quality 100.0 %
Test CRC C4BBEB75
Copy CRC C4BBEB75
Track not present in AccurateRip database
Copy OK

Track 18

Filename C:\AddisistheGodFlac\18 - Mr Bojangles.wav

Pre-gap length 0:00:01.58

Peak level 97.0 %
Extraction speed 4.8 X
Track quality 100.0 %
Test CRC C1092E47
Copy CRC C1092E47
Track not present in AccurateRip database
Copy OK

Track 19

Filename C:\AddisistheGodFlac\19 - I'd Love You To Want Me.wav

Pre-gap length 0:00:01.58

Peak level 97.0 %
Extraction speed 4.7 X
Track quality 100.0 %
Test CRC 36E1B0F9
Copy CRC 36E1B0F9
Track not present in AccurateRip database
Copy OK

Track 20

Filename C:\AddisistheGodFlac\20 - Killing Me Softly With Her Song.wav

Pre-gap length 0:00:01.58

Peak level 97.0 %
Extraction speed 4.9 X
Track quality 100.0 %
Test CRC 4727422B
Copy CRC 4727422B
Track not present in AccurateRip database
Copy OK

Track 21

Filename C:\AddisistheGodFlac\21 - You Baby.wav

Pre-gap length 0:00:01.58

Peak level 97.0 %
Extraction speed 4.2 X
Track quality 99.9 %
Test CRC C62BB77C
Copy CRC C62BB77C
Track not present in AccurateRip database
Copy OK

Track 22

Filename C:\AddisistheGodFlac\22 - Too Much Love.wav

Pre-gap length 0:00:01.58

Peak level 97.0 %
Extraction speed 4.7 X
Track quality 100.0 %
Test CRC E17584BE
Copy CRC E17584BE
Track not present in AccurateRip database
Copy OK

Track 23

Filename C:\AddisistheGodFlac\23 - Girl From Ipanema.wav

Pre-gap length 0:00:01.58

Peak level 97.0 %
Extraction speed 4.0 X
Track quality 99.9 %
Test CRC 2C234ADB
Copy CRC 2C234ADB
Track not present in AccurateRip database
Copy OK

Track 24

Filename C:\AddisistheGodFlac\24 - Which Way You Going Baby.wav

Pre-gap length 0:00:01.58

Peak level 97.0 %
Extraction speed 5.2 X
Track quality 100.0 %
Test CRC 51B3B1A8
Copy CRC 51B3B1A8
Track not present in AccurateRip database
Copy OK


None of the tracks are present in the AccurateRip database

No errors occurred

End of status report

==== Log checksum 852EAD766B73D3ED3574C067FBBD74C6FE9A1933560DB42BD0EED2B097FF70A1 ====

Exact Audio Copy V1.0 beta 3 from 29. August 2011

EAC extraction logfile from 15. June 2016, 1:17

John Holt / 4000 Volts Of Holt CD2

Used drive : TSSTcorpCDDVDW SN-208DN Adapter: 0 ID: 0

Read mode : Secure
Utilize accurate stream : Yes
Defeat audio cache : Yes
Make use of C2 pointers : No

Read offset correction : 6
Overread into Lead-In and Lead-Out : No
Fill up missing offset samples with silence : Yes
Delete leading and trailing silent blocks : No
Null samples used in CRC calculations : Yes
Used interface : Native Win32 interface for Win NT & 2000
Gap handling : Appended to previous track

Used output format : User Defined Encoder
Selected bitrate : 128 kBit/s
Quality : High
Add ID3 tag : No
Command line compressor : C:\Program Files (x86)\Exact Audio Copy\Flac\flac.exe
Additional command line options : -8 -V -T "ARTIST=%artist%" -T "TITLE=%title%" -T "ALBUM=%albumtitle%" -T "DATE=%year%" -T "TRACKNUMBER=%tracknr%" -T "TOTALTRACKS=%numtracks%" -T "GENRE=%genre%" -T "ALBUMARTIST=%albumartist%" -T "ALBUM ARTIST=%albumartist%" -T "COMMENT=EAC Secure Mode, Test & Copy, AccurateRip, FLAC -8" %source%


TOC of the extracted CD

Track | Start | Length | Start sector | End sector
––––––––––––––––––––––––––––-
1 | 0:00.00 | 2:57.36 | 0 | 13310
2 | 2:57.36 | 2:57.17 | 13311 | 26602
3 | 5:54.53 | 3:25.00 | 26603 | 41977
4 | 9:19.53 | 3:00.28 | 41978 | 55505
5 | 12:20.06 | 3:07.10 | 55506 | 69540
6 | 15:27.16 | 2:09.53 | 69541 | 79268
7 | 17:36.69 | 3:14.55 | 79269 | 93873
8 | 20:51.49 | 2:25.07 | 93874 | 104755
9 | 23:16.56 | 3:23.63 | 104756 | 120043
10 | 26:40.44 | 3:08.12 | 120044 | 134155
11 | 29:48.56 | 3:07.42 | 134156 | 148222
12 | 32:56.23 | 2:50.46 | 148223 | 161018
13 | 35:46.69 | 3:35.69 | 161019 | 177212
14 | 39:22.63 | 3:01.20 | 177213 | 190807
15 | 42:24.08 | 3:50.30 | 190808 | 208087
16 | 46:14.38 | 3:33.62 | 208088 | 224124
17 | 49:48.25 | 3:43.29 | 224125 | 240878
18 | 53:31.54 | 3:26.34 | 240879 | 256362
19 | 56:58.13 | 3:53.67 | 256363 | 273904
20 | 60:52.05 | 3:11.12 | 273905 | 288241
21 | 64:03.17 | 2:19.45 | 288242 | 298711
22 | 66:22.62 | 2:47.24 | 298712 | 311260
23 | 69:10.11 | 2:55.35 | 311261 | 324420
24 | 72:05.46 | 3:45.53 | 324421 | 341348


Track 1

Filename C:\AddisistheGodFlac\01 - Tell Me Why.wav

Pre-gap length 0:00:02.00

Peak level 97.0 %
Extraction speed 2.8 X
Track quality 100.0 %
Test CRC 0A4F3B6C
Copy CRC 0A4F3B6C
Track not present in AccurateRip database
Copy OK

Track 2

Filename C:\AddisistheGodFlac\02 - After All.wav

Pre-gap length 0:00:01.58

Peak level 97.0 %
Extraction speed 3.0 X
Track quality 100.0 %
Test CRC ABC7BE13
Copy CRC ABC7BE13
Track not present in AccurateRip database
Copy OK

Track 3

Filename C:\AddisistheGodFlac\03 - I Don't Mind.wav

Pre-gap length 0:00:01.58

Peak level 97.0 %
Extraction speed 3.3 X
Track quality 100.0 %
Test CRC 462ECC9B
Copy CRC 462ECC9B
Track not present in AccurateRip database
Copy OK

Track 4

Filename C:\AddisistheGodFlac\04 - Not So Close.wav

Pre-gap length 0:00:01.58

Peak level 97.0 %
Extraction speed 3.4 X
Track quality 100.0 %
Test CRC 593A542A
Copy CRC 593A542A
Track not present in AccurateRip database
Copy OK

Track 5

Filename C:\AddisistheGodFlac\05 - I'll Light Your Fire.wav

Pre-gap length 0:00:01.58

Peak level 97.0 %
Extraction speed 3.6 X
Track quality 100.0 %
Test CRC F92D398E
Copy CRC F92D398E
Track not present in AccurateRip database
Copy OK

Track 6

Filename C:\AddisistheGodFlac\06 - You'd Better Take Time.wav

Pre-gap length 0:00:01.58

Peak level 97.0 %
Extraction speed 3.4 X
Track quality 100.0 %
Test CRC 0B9048A6
Copy CRC 0B9048A6
Track not present in AccurateRip database
Copy OK

Track 7

Filename C:\AddisistheGodFlac\07 - Dusty Road.wav

Pre-gap length 0:00:01.58

Peak level 97.0 %
Extraction speed 3.9 X
Track quality 100.0 %
Test CRC 28A14D61
Copy CRC 28A14D61
Track not present in AccurateRip database
Copy OK

Track 8

Filename C:\AddisistheGodFlac\08 - These Old Memories.wav

Pre-gap length 0:00:01.58

Peak level 97.0 %
Extraction speed 2.8 X
Track quality 99.9 %
Test CRC 5C9EB0B8
Copy CRC 5C9EB0B8
Track not present in AccurateRip database
Copy OK

Track 9

Filename C:\AddisistheGodFlac\09 - In The Middle Of The Night.wav

Pre-gap length 0:00:01.58

Peak level 97.0 %
Extraction speed 3.3 X
Track quality 99.9 %
Test CRC 9E8C0B08
Copy CRC 9E8C0B08
Track not present in AccurateRip database
Copy OK

Track 10

Filename C:\AddisistheGodFlac\10 - Make This Young Lady Mine.wav

Pre-gap length 0:00:01.58

Peak level 97.0 %
Extraction speed 4.3 X
Track quality 100.0 %
Test CRC 4D70B3D1
Copy CRC 4D70B3D1
Track not present in AccurateRip database
Copy OK

Track 11

Filename C:\AddisistheGodFlac\11 - I Won't Let You Forget.wav

Pre-gap length 0:00:01.58

Peak level 97.0 %
Extraction speed 3.4 X
Track quality 99.9 %
Test CRC 38120F81
Copy CRC 38120F81
Track not present in AccurateRip database
Copy OK

Track 12

Filename C:\AddisistheGodFlac\12 - The Same Old Thing.wav

Pre-gap length 0:00:01.58

Peak level 97.0 %
Extraction speed 3.3 X
Track quality 99.9 %
Test CRC 8F09A468
Copy CRC 8F09A468
Track not present in AccurateRip database
Copy OK

Track 13

Filename C:\AddisistheGodFlac\13 - Doctor Love.wav

Pre-gap length 0:00:01.58

Peak level 95.2 %
Extraction speed 4.7 X
Track quality 100.0 %
Test CRC 35571A58
Copy CRC 35571A58
Track not present in AccurateRip database
Copy OK

Track 14

Filename C:\AddisistheGodFlac\14 - Yester - Me Yester - You Yesterday.wav

Pre-gap length 0:00:01.58

Peak level 93.0 %
Extraction speed 3.6 X
Track quality 99.9 %
Test CRC F2C7B683
Copy CRC F2C7B683
Track not present in AccurateRip database
Copy OK

Track 15

Filename C:\AddisistheGodFlac\15 - Touch Me In The Morning.wav

Pre-gap length 0:00:01.58

Peak level 95.2 %
Extraction speed 4.1 X
Track quality 99.9 %
Test CRC AA3A35F9
Copy CRC AA3A35F9
Track not present in AccurateRip database
Copy OK

Track 16

Filename C:\AddisistheGodFlac\16 - Keep On Moving.wav

Pre-gap length 0:00:01.58

Peak level 95.2 %
Extraction speed 5.1 X
Track quality 100.0 %
Test CRC 565A87E9
Copy CRC 565A87E9
Track not present in AccurateRip database
Copy OK

Track 17

Filename C:\AddisistheGodFlac\17 - I Will.wav

Pre-gap length 0:00:01.58

Peak level 95.2 %
Extraction speed 3.5 X
Track quality 99.9 %
Test CRC CE956D14
Copy CRC CE956D14
Track not present in AccurateRip database
Copy OK

Track 18

Filename C:\AddisistheGodFlac\18 - Alfie.wav

Pre-gap length 0:00:01.58

Peak level 95.2 %
Extraction speed 4.0 X
Track quality 99.9 %
Test CRC 2FADC887
Copy CRC 2FADC887
Track not present in AccurateRip database
Copy OK

Track 19

Filename C:\AddisistheGodFlac\19 - I'll Take A Melody.wav

Pre-gap length 0:00:01.58

Peak level 95.2 %
Extraction speed 4.4 X
Track quality 99.9 %
Test CRC D1A12CF6
Copy CRC D1A12CF6
Track not present in AccurateRip database
Copy OK

Track 20

Filename C:\AddisistheGodFlac\20 - My Guiding Star.wav

Pre-gap length 0:00:01.58

Peak level 95.2 %
Extraction speed 5.2 X
Track quality 100.0 %
Test CRC CA48BE24
Copy CRC CA48BE24
Track not present in AccurateRip database
Copy OK

Track 21

Filename C:\AddisistheGodFlac\21 - On A Clear Day You Can See Forever.wav

Pre-gap length 0:00:01.58

Peak level 95.2 %
Extraction speed 3.8 X
Track quality 99.9 %
Test CRC 063AF876
Copy CRC 063AF876
Track not present in AccurateRip database
Copy OK

Track 22

Filename C:\AddisistheGodFlac\22 - Peace And Love.wav

Pre-gap length 0:00:01.58

Peak level 95.2 %
Extraction speed 4.2 X
Track quality 99.9 %
Test CRC 9613C124
Copy CRC 9613C124
Track not present in AccurateRip database
Copy OK

Track 23

Filename C:\AddisistheGodFlac\23 - Take Away My Heart Theresa.wav

Pre-gap length 0:00:01.58

Peak level 95.2 %
Extraction speed 4.3 X
Track quality 99.9 %
Test CRC 81E66A56
Copy CRC 81E66A56
Track not present in AccurateRip database
Copy OK

Track 24

Filename C:\AddisistheGodFlac\24 - For The Love Of You.wav

Pre-gap length 0:00:01.58

Peak level 95.2 %
Extraction speed 2.3 X
Track quality 99.7 %
Test CRC BBAC35FA
Copy CRC BBAC35FA
Track not present in AccurateRip database
Copy OK


None of the tracks are present in the AccurateRip database

No errors occurred

End of status report

==== Log checksum 57B4B9CC66C5D80F45CCD1B1F87D4FAC6E933F717A72E2C44A07A153FE90F473 ====


John Holt - 4000 Volts Of Holt: The Classic Albums Collection (2016) {2 CD Set Trojan Records TJDCD547 rec 1974-1976}



===