Tags
Language
Tags

John Jenkins - John Jenkins With Kenny Burrell (1957) {Blue Note Connoisseur CD Series, SBM}

Posted By: ruskaval
John Jenkins - John Jenkins With Kenny Burrell (1957) {Blue Note Connoisseur CD Series, SBM}

John Jenkins - John Jenkins With Kenny Burrell (1957) {Blue Note Connoisseur CD Series, SBM}
EAC rip (secure mode) | FLAC (tracks)+CUE+LOG -> 365 Mb | MP3 @320 -> 122 Mb
Full Artwork @ 600 dpi (jpg) -> 181 Mb | 5% repair rar
© 1957, 1996 Blue Note / Capitol | CDP 7243 8 52437 2 1
Jazz / Hard Bop / Saxophone / Guitar

The great John Jenkins was one of the lesser-known sax stars to come out of the Chicago scene of the late 50s – but he was also one of the best! Jenkins played alto impeccably – with boppish agility, and a deep sense of soul that worked great on this one and only Blue Note session as a leader. The group features Kenny Burrell playing some of his best work on record – and the rhythm section features Sonny Clark on piano, Paul Chambers on bass, and Dannie Richmond on drums – playing in a rare non-Mingus appearance! Tracks include "Motif", "Sharon", "Blues For Two", and "Chalumeau" – and the session is a wonderful bit of lost Blue Note – great sharp edges from Jenkins' alto, and some warmer, rounder tones from Burrell on guitar. CD also features 2 bonus alternate takes.
John Jenkins - John Jenkins With Kenny Burrell (1957) {Blue Note Connoisseur CD Series, SBM}

John Jenkins - John Jenkins With Kenny Burrell (1957) {Blue Note Connoisseur CD Series, SBM}


Musicians

John Jenkins - alto saxophone
Kenny Burrell - guitar
Sonny Clark - piano
Paul Chambers - bass
Dannie Richmond - drums

Tracklisting

01 - From This Moment On
02 - Motif
03 - Everything I Have Is Yours
04 - Sharon
05 - Chalumeau
06 - Blues For Two
07 - Sharon (stereo tk)
08 - Chalumeau (stereo tk)

Exact Audio Copy V1.3 from 2. September 2016

EAC extraction logfile from 13. January 2019, 23:32

John Jenkins / John Jenkins With Kenny Burrell

Used drive : ATAPI iHAS122 F Adapter: 1 ID: 0

Read mode : Secure
Utilize accurate stream : Yes
Defeat audio cache : Yes
Make use of C2 pointers : No

Read offset correction : 6
Overread into Lead-In and Lead-Out : No
Fill up missing offset samples with silence : Yes
Delete leading and trailing silent blocks : No
Null samples used in CRC calculations : Yes
Used interface : Native Win32 interface for Win NT & 2000
Gap handling : Appended to previous track

Used output format : User Defined Encoder
Selected bitrate : 1024 kBit/s
Quality : High
Add ID3 tag : No
Command line compressor : C:\Program Files (x86)\Exact Audio Copy_v1.3\Flac\flac.exe
Additional command line options : -8 -V -T "ARTIST=%artist%" -T "TITLE=%title%" -T "ALBUM=%albumtitle%" -T "DATE=%year%" -T "TRACKNUMBER=%tracknr%" -T "TOTALTRACKS=%numtracks%" -T "GENRE=%genre%" -T "ALBUMARTIST=%albumartist%" -T "ALBUM ARTIST=%albumartist%" -T "COMMENT=EAC Secure Mode, Test & Copy, AccurateRip, FLAC -8" %source%


TOC of the extracted CD

Track | Start | Length | Start sector | End sector
––––––––––––––––––––––––––––-
1 | 0:00.00 | 7:39.42 | 0 | 34466
2 | 7:39.42 | 6:17.18 | 34467 | 62759
3 | 13:56.60 | 6:12.55 | 62760 | 90714
4 | 20:09.40 | 7:49.30 | 90715 | 125919
5 | 27:58.70 | 5:58.50 | 125920 | 152819
6 | 33:57.45 | 4:44.37 | 152820 | 174156
7 | 38:42.07 | 6:29.43 | 174157 | 203374
8 | 45:11.50 | 5:58.52 | 203375 | 230276


Track 1

Filename F:\_EAC\John Jenkins - John Jenkins With Kenny Burrell (1957) [FLAC]\01 - From This Moment On.wav

Pre-gap length 0:00:02.00

Peak level 98.1 %
Extraction speed 5.3 X
Track quality 100.0 %
Test CRC F7450EE3
Copy CRC F7450EE3
Accurately ripped (confidence 9) [A779BC64] (AR v2)
Copy OK

Track 2

Filename F:\_EAC\John Jenkins - John Jenkins With Kenny Burrell (1957) [FLAC]\02 - Motif.wav

Peak level 92.8 %
Extraction speed 6.0 X
Track quality 100.0 %
Test CRC 51ECAE0E
Copy CRC 51ECAE0E
Accurately ripped (confidence 9) [D7DC8F01] (AR v2)
Copy OK

Track 3

Filename F:\_EAC\John Jenkins - John Jenkins With Kenny Burrell (1957) [FLAC]\03 - Everything I Have Is Yours.wav

Peak level 93.0 %
Extraction speed 6.5 X
Track quality 100.0 %
Test CRC A9884A40
Copy CRC A9884A40
Accurately ripped (confidence 9) [A8412799] (AR v2)
Copy OK

Track 4

Filename F:\_EAC\John Jenkins - John Jenkins With Kenny Burrell (1957) [FLAC]\04 - Sharon.wav

Peak level 88.7 %
Extraction speed 7.3 X
Track quality 100.0 %
Test CRC D6B647FE
Copy CRC D6B647FE
Accurately ripped (confidence 9) [51473D89] (AR v2)
Copy OK

Track 5

Filename F:\_EAC\John Jenkins - John Jenkins With Kenny Burrell (1957) [FLAC]\05 - Chalumeau.wav

Pre-gap length 0:00:00.01

Peak level 84.9 %
Extraction speed 7.7 X
Track quality 100.0 %
Test CRC E9657F8C
Copy CRC E9657F8C
Accurately ripped (confidence 9) [4C3A0C6E] (AR v2)
Copy OK

Track 6

Filename F:\_EAC\John Jenkins - John Jenkins With Kenny Burrell (1957) [FLAC]\06 - Blues For Two.wav

Peak level 95.3 %
Extraction speed 6.6 X
Track quality 99.9 %
Test CRC 30AAB9FF
Copy CRC 30AAB9FF
Accurately ripped (confidence 9) [7ED5A0DC] (AR v2)
Copy OK

Track 7

Filename F:\_EAC\John Jenkins - John Jenkins With Kenny Burrell (1957) [FLAC]\07 - Sharon (stereo tk).wav

Peak level 99.0 %
Extraction speed 8.5 X
Track quality 100.0 %
Test CRC 6B2DADD6
Copy CRC 6B2DADD6
Accurately ripped (confidence 9) [7EC27351] (AR v2)
Copy OK

Track 8

Filename F:\_EAC\John Jenkins - John Jenkins With Kenny Burrell (1957) [FLAC]\08 - Chalumeau (stereo tk).wav

Peak level 89.2 %
Extraction speed 8.8 X
Track quality 100.0 %
Test CRC 9AA93216
Copy CRC 9AA93216
Accurately ripped (confidence 9) [728B51BA] (AR v2)
Copy OK


All tracks accurately ripped

No errors occurred

End of status report

–– CUETools DB Plugin V2.1.6

[CTDB TOCID: 8TKO08aSgTv3hDsBoTyeDHottXM-] found
Submit result: 8TKO08aSgTv3hDsBoTyeDHottXM- has been confirmed
Track | CTDB Status
1 | (7/7) Accurately ripped
2 | (7/7) Accurately ripped
3 | (7/7) Accurately ripped
4 | (7/7) Accurately ripped
5 | (7/7) Accurately ripped
6 | (7/7) Accurately ripped
7 | (7/7) Accurately ripped
8 | (6/7) Accurately ripped


==== Log checksum 9271979D379E57E82C40190DDD3AF8659827CB18D2D11ACEDCABB75BB9176B14 ====


John Jenkins - John Jenkins With Kenny Burrell (1957) {Blue Note Connoisseur CD Series, SBM}

John Jenkins - John Jenkins With Kenny Burrell (1957) {Blue Note Connoisseur CD Series, SBM}



===