Subcategories

John Lee & Gerry Brown - Bamboo Madness (1974) {2015 Japan Timeless Jazz Master Collection Complete Series}

Posted By: ruskaval
John Lee & Gerry Brown - Bamboo Madness (1974) {2015 Japan Timeless Jazz Master Collection Complete Series}

John Lee & Gerry Brown - Bamboo Madness (1974) {2015 Japan Timeless Jazz Master Collection Complete Series}
EAC rip (secure mode) | FLAC (tracks)+CUE+LOG -> 264 Mb | MP3 @320 -> 98 Mb
Full Artwork @ 600 dpi (png) -> 229 Mb | 5% repair rar
© 1974, 2015 Limetree / Timeless Records / Solid Records Japan / Ultra-Vibe | CDSOL-6419
Jazz / Neo Bop / Fusion / Drums / Bass / Flute

Reissue with the latest remastering and the original cover artwork. Comes with a description written in Japanese. A sweet 70s set from the ultra-hip rhythm duo of bassist John Lee and drummer Gerry Brown – working here in a European setting with loads of great reed work to support the "bamboo" vibe of the title! Flute player Chris Hinze blows both bamboo and regular flute – and the feel of the set is like some of his excellent fusion dates from the same time – but the record also has lots of great work from Gary Bartz on alto and soprano sax, plus some keyboards from Hubert Eaves and Jasper Van'T Hof – two very different players who balance out the mood nicely. Some tracks are full-on fusion, but they're offset by mellower, more introspective passages – of the sort that really let the reed players come out strongly – and titles include "Jua", "Rise On", "Who Can See The Shadow Of The Moon", "Infinite Jones", and "Deliverance".
John Lee & Gerry Brown - Bamboo Madness (1974) {2015 Japan Timeless Jazz Master Collection Complete Series}


Personnel:
Gerry Brown - drums, percussion
John Lee - bass, Fender bass, percussion
Gary Bartz - alto and soprano saxophones, slidewhistle, percussion
Chris Hinze - flute, alto and bass flute, piccolo, bamboo flute
Henny Vonk - vocals, percussion
Howard King - percussion
Rob van den Broek - piano, electric piano,
Hubert Eaves - piano, electric piano, percussion
Jasper van 't Hof - organ, electric piano
Wim Stolwijk - piano, voice

Recorded at The Dureco Studio Weesp, Holland, 1974

John Lee & Gerry Brown - Bamboo Madness (1974) {2015 Japan Timeless Jazz Master Collection Complete Series}


tracklist:
01 - Infinite Jones
02 - Deliverance
03 - Jua
04 - Absitively Posolutely
05 - Rise On
06 - Who Can See The Shadow Of The Moon
07 - Bamboo Madness

Exact Audio Copy V1.1 from 23. June 2015

EAC extraction logfile from 31. December 2016, 21:07

John Lee & Gerry Brown / Bamboo Madness

Used drive : HL-DT-STDVDRAM GP50NW41 Adapter: 1 ID: 0

Read mode : Secure
Utilize accurate stream : Yes
Defeat audio cache : Yes
Make use of C2 pointers : No

Read offset correction : 6
Overread into Lead-In and Lead-Out : No
Fill up missing offset samples with silence : Yes
Delete leading and trailing silent blocks : No
Null samples used in CRC calculations : Yes
Used interface : Native Win32 interface for Win NT & 2000
Gap handling : Appended to previous track

Used output format : User Defined Encoder
Selected bitrate : 1024 kBit/s
Quality : High
Add ID3 tag : No
Command line compressor : C:\Program Files (x86)\FLAC Frontend\tools\flac.exe
Additional command line options : -8 -V -T "ARTIST=%artist%" -T "TITLE=%title%" -T "ALBUM=%albumtitle%" -T "DATE=%year%" -T "TRACKNUMBER=%tracknr%" -T "TOTALTRACKS=%numtracks%" -T "GENRE=%genre%" -T "ALBUMARTIST=%albumartist%" -T "ALBUM ARTIST=%albumartist%" -T "COMMENT=EAC Secure Mode, Test & Copy, AccurateRip, FLAC -8" %source%


TOC of the extracted CD

Track | Start | Length | Start sector | End sector
––––––––––––––––––––––––––––-
1 | 0:00.00 | 6:42.42 | 0 | 30191
2 | 6:42.42 | 13:46.13 | 30192 | 92154
3 | 20:28.55 | 7:07.00 | 92155 | 124179
4 | 27:35.55 | 3:00.32 | 124180 | 137711
5 | 30:36.12 | 3:19.30 | 137712 | 152666
6 | 33:55.42 | 5:14.65 | 152667 | 176281
7 | 39:10.32 | 2:33.23 | 176282 | 187779


Track 1

Filename D:\_EAC\John Lee & Gerry Brown - Bamboo Madness (1974) [FLAC] {CDSOL-6419}\01 - Infinite Jones.wav

Pre-gap length 0:00:02.00

Peak level 100.0 %
Extraction speed 2.9 X
Track quality 100.0 %
Test CRC BDDFD3C8
Copy CRC BDDFD3C8
Accurately ripped (confidence 1) [2CA853CA] (AR v2)
Copy OK

Track 2

Filename D:\_EAC\John Lee & Gerry Brown - Bamboo Madness (1974) [FLAC] {CDSOL-6419}\02 - Deliverance.wav

Pre-gap length 0:00:02.37

Peak level 97.4 %
Extraction speed 3.8 X
Track quality 100.0 %
Test CRC BB320C2D
Copy CRC BB320C2D
Accurately ripped (confidence 1) [C8F18DE3] (AR v2)
Copy OK

Track 3

Filename D:\_EAC\John Lee & Gerry Brown - Bamboo Madness (1974) [FLAC] {CDSOL-6419}\03 - Jua.wav

Pre-gap length 0:00:02.40

Peak level 100.0 %
Extraction speed 4.2 X
Track quality 100.0 %
Test CRC 0BE74C96
Copy CRC 0BE74C96
Accurately ripped (confidence 1) [FDD55B98] (AR v2)
Copy OK

Track 4

Filename D:\_EAC\John Lee & Gerry Brown - Bamboo Madness (1974) [FLAC] {CDSOL-6419}\04 - Absitively Posolutely.wav

Pre-gap length 0:00:02.28

Peak level 93.3 %
Extraction speed 4.0 X
Track quality 100.0 %
Test CRC F4B70DAC
Copy CRC F4B70DAC
Accurately ripped (confidence 1) [02B620E0] (AR v2)
Copy OK

Track 5

Filename D:\_EAC\John Lee & Gerry Brown - Bamboo Madness (1974) [FLAC] {CDSOL-6419}\05 - Rise On.wav

Pre-gap length 0:00:01.37

Peak level 100.0 %
Extraction speed 4.3 X
Track quality 100.0 %
Test CRC 2384965A
Copy CRC 2384965A
Accurately ripped (confidence 1) [F2075D32] (AR v2)
Copy OK

Track 6

Filename D:\_EAC\John Lee & Gerry Brown - Bamboo Madness (1974) [FLAC] {CDSOL-6419}\06 - Who Can See The Shadow Of The Moon.wav

Pre-gap length 0:00:02.35

Peak level 69.5 %
Extraction speed 4.7 X
Track quality 100.0 %
Test CRC 0B682278
Copy CRC 0B682278
Accurately ripped (confidence 1) [780AC697] (AR v2)
Copy OK

Track 7

Filename D:\_EAC\John Lee & Gerry Brown - Bamboo Madness (1974) [FLAC] {CDSOL-6419}\07 - Bamboo Madness.wav

Pre-gap length 0:00:02.02

Peak level 79.4 %
Extraction speed 4.3 X
Track quality 100.0 %
Test CRC C92D6BC2
Copy CRC C92D6BC2
Accurately ripped (confidence 1) [71AA8015] (AR v2)
Copy OK


All tracks accurately ripped

No errors occurred

End of status report

==== Log checksum 9D37B2C61D8D3AE4CD738757616EFB0FA1EF466EF0A778DEFDFAB370A74FD022 ====


John Lee & Gerry Brown - Bamboo Madness (1974) {2015 Japan Timeless Jazz Master Collection Complete Series}

John Lee & Gerry Brown - Bamboo Madness (1974) {2015 Japan Timeless Jazz Master Collection Complete Series}


see more Japan Timeless Jazz Master Collection…


===