Subcategories

John Lee Hooker - If You Miss 'Im...I Got 'Im

Posted By: drucen
John Lee Hooker - If You Miss 'Im...I Got 'Im

John Lee Hooker - If You Miss 'Im…I Got 'Im
FLAC (image+cue+log+covers) | 265 Mb | RS, DF, HF
Released: 1998 (Recorded: 1969) | Label: BGO Records (BGO 392) | Genre: Blues | Ripper: yarila

This album is marked by the interaction between John Lee Hooker and his guitar-playing cousin Earl. Earl, who succumbed to illness in 1970, was a fine bluesman in his own right, possessing a formidable slide technique. Many are unaware that the two often performed together, and the band that accompanies John Lee here also backed Earl frequently. The opening cut, then, a slow 12-bar number called "The Hookers" is not about ladies of the evening, but rather about the gentlemen in question.

Heard here less than a year before his death, Earl still sounds frisky and versatile, often utilizing a funky wah-wah style without ever descending into the psychedelic excesses that plagued so many late-'60s electric blues albums. One of the most effective cuts is "Lonesome Mood," a low-key, one-chord stomper in the classic John Lee mold, where Earl's wah-wah guitar meshes with Johnny Walker's organ and Jefferey Carp's harmonica to create a subtly shifting, sensuously undulating web of sound over which John Lee works his hoodoo. On IF YOU MISS 'IM, John Lee definitely benefits from keeping it in the family.

Exact Audio Copy V0.99 prebeta 4 from 23. January 2008

EAC extraction logfile from 22. April 2009, 22:04

John Lee Hooker / If You Miss 'Im…I Got 'Im

Used drive : HL-DT-STDVD-RAM GH22NP20 Adapter: 0 ID: 0

Read mode : Secure
Utilize accurate stream : Yes
Defeat audio cache : Yes
Make use of C2 pointers : No

Read offset correction : 102
Overread into Lead-In and Lead-Out : No
Fill up missing offset samples with silence : Yes
Delete leading and trailing silent blocks : No
Null samples used in CRC calculations : Yes
Used interface : Native Win32 interface for Win NT & 2000

Used output format : User Defined Encoder
Selected bitrate : 1024 kBit/s
Quality : High
Add ID3 tag : No
Command line compressor : C:\Program Files (x86)\Exact Audio Copy\Flac\flac.exe
Additional command line options : -V -8 -T "artist=%a" -T "title=%t" -T "album=%g" -T "date=%y" -T "tracknumber=%n" -T "genre=%m" %s


TOC of the extracted CD

Track | Start | Length | Start sector | End sector
––––––––––––––––––––––––––––-
1 | 0:00.00 | 4:44.02 | 0 | 21301
2 | 4:44.02 | 4:11.58 | 21302 | 40184
3 | 8:55.60 | 5:15.00 | 40185 | 63809
4 | 14:10.60 | 4:47.37 | 63810 | 85371
5 | 18:58.22 | 3:38.20 | 85372 | 101741
6 | 22:36.42 | 5:07.12 | 101742 | 124778
7 | 27:43.54 | 8:14.28 | 124779 | 161856
8 | 35:58.07 | 2:39.68 | 161857 | 173849
9 | 38:38.00 | 7:55.45 | 173850 | 209519


Range status and errors

Selected range

Filename D:\Rips\John Lee Hooker - If You Miss 'Im…I Got 'Im.wav

Peak level 98.8 %
Range quality 100.0 %
Test CRC 7368B589
Copy CRC 7368B589
Copy OK

No errors occurred


AccurateRip summary

Track 1 not present in database
Track 2 not present in database
Track 3 not present in database
Track 4 not present in database
Track 5 not present in database
Track 6 not present in database
Track 7 not present in database
Track 8 not present in database
Track 9 not present in database

None of the tracks are present in the AccurateRip database

End of status report


Track List:

1. The Hookers (If You Miss 'Im…I Got 'Im) [4:44]
2. Baby, I Love You [4:12]
3. Lonesome Mood [5:15]
4. Bang Bang Bang Bang [4:47]
5. If You Take Care of Me, I'll Take Care of You [3:38]
6. Baby, Be Strong [5:07]
7. I Wanna Be Your Puppy, Baby [8:14]
8. I Don't Care When You Go [2:40]
9. Have Mercy On My Soul! [7:56]


Personnel:

John Lee Hooker: guitar, vocals
Earl Hooker: guitar (1-3, 5-8)
Paul Asbell: guitar (4, 9)
Johnny 'Big Moose' Walker: piano, organ
Jefrey Carp: harmonica
Chester 'Gino' Skaggs: fender bass
Roosevelt Shaw: drums

Recorded at Vault Recordings, Los Angeles, 29th May, 1969

Download from Rapidshare:

FLAC1
FLAC2
FLAC3

Covers

Download from Hotfiles:

FLAC1
FLAC2
FLAC3

Covers

Download from Depositfiles

5% recovery
Psw:drucen