Tags
Language
Tags

John Lewis - Evolution II (2000) {2014 Japan Jazz Best Collection 1000 Series 24bit WPCR-27942}

Posted By: ruskaval
John Lewis - Evolution II (2000) {2014 Japan Jazz Best Collection 1000 Series 24bit WPCR-27942}

John Lewis - Evolution II (2000) {2014 Japan Jazz Best Collection 1000 Series 24bit WPCR-27942}
EAC rip (secure mode) | FLAC (tracks)+CUE+LOG -> 289 Mb | MP3 @320 -> 123 Mb
Full Artwork @ 600 dpi (png) -> 207 Mb | 5% repair rar | 24-bit remaster
© 2000, 2014 Atlantic / Warner Japan / Rhino | WPCR-27942 | Jazz Best Collection 1000 Series
Jazz / Third Stream / Piano

Features 24 bit remastering and comes with a mini-description. On May 3, 2000, John Lewis turned 80 – and almost half a century after the formation of the Modern Jazz Quartet, he could still inspire a variety of reactions. Over the years, Lewis' detractors have insisted that his piano playing is too polite and overly mannered; his admirers, however, have exalted him as the epitome of class and sophistication. To be sure, Lewis' pianism is quite sophisticated, but that doesn't mean that he doesn't swing or that he isn't soulful. Recorded in 2000 and released in early 2001, Evolution II isn't going to convert anyone who isn't already an admirer of the pianist's cool jazz/third stream approach. Anyone who has claimed that Lewis' playing is too polite won't have a change of heart after hearing this CD, but for Lewis' admirers, the rewards are great. Evolution II is the second installment of his Evolution trilogy; while the first Evolution was an unaccompanied solo piano recording, Evolution II finds him leading quartets that include Howard Alden or Howard Collins on guitar, George Mraz or Marc Johnson on upright bass, and Lewis Nash on drums. Except for the standards "Come Rain or Come Shine" and "What Is This Thing Called Love?," all of the songs are Lewis originals (including new compositions as well as familiar pieces like "Django" and "Trieste"). True to form, Lewis is elegant and swinging at the same time – contrary to what his detractors have claimed, Lewis swings, but he does so on his own terms. For Lewis, there is no reason why jazz cannot be classical-influenced yet maintain the feelings of the blues. Although Evolution II falls short of essential, it is an enjoyable addition to the veteran pianist's catalog and demonstrates that his chops have held up well over the years.
John Lewis - Evolution II (2000) {2014 Japan Jazz Best Collection 1000 Series 24bit WPCR-27942}


Personnel: John Lewis - piano; Howard Collins or Howard Alden - guitar; Marc Johnson or George Mraz - bass; Lewis Nash - drums.

tracklist:
01 - The Festivals
02 - One! Of Parker's Moods
03 - December, Remember
04 - That! Afternoon In Paris
05 - Cain And Abel
06 - Come Rain Or Come Shine
07 - Trieste
08 - Django
09 - Sammy
10 - What Is This Thing Called Love

Exact Audio Copy V1.0 beta 3 from 29. August 2011

EAC extraction logfile from 20. January 2015, 18:28

John Lewis / Evolution II

Used drive : ATAPI iHAS124 B Adapter: 2 ID: 1

Read mode : Secure
Utilize accurate stream : Yes
Defeat audio cache : Yes
Make use of C2 pointers : No

Read offset correction : 6
Overread into Lead-In and Lead-Out : No
Fill up missing offset samples with silence : Yes
Delete leading and trailing silent blocks : No
Null samples used in CRC calculations : Yes
Used interface : Native Win32 interface for Win NT & 2000
Gap handling : Appended to previous track

Used output format : User Defined Encoder
Selected bitrate : 1024 kBit/s
Quality : High
Add ID3 tag : No
Command line compressor : C:\Program Files (x86)\FLAC Frontend\tools\flac.exe
Additional command line options : -8 -V -T "ARTIST=%artist%" -T "TITLE=%title%" -T "ALBUM=%albumtitle%" -T "DATE=%year%" -T "TRACKNUMBER=%tracknr%" -T "TOTALTRACKS=%numtracks%" -T "GENRE=%genre%" -T "ALBUMARTIST=%albumartist%" -T "ALBUM ARTIST=%albumartist%" -T "COMMENT=EAC Secure Mode, Test & Copy, AccurateRip, FLAC -8" %source%


TOC of the extracted CD

Track | Start | Length | Start sector | End sector
––––––––––––––––––––––––––––-
1 | 0:00.00 | 4:14.15 | 0 | 19064
2 | 4:14.15 | 3:54.47 | 19065 | 36661
3 | 8:08.62 | 6:58.62 | 36662 | 68073
4 | 15:07.49 | 6:07.49 | 68074 | 95647
5 | 21:15.23 | 6:53.00 | 95648 | 126622
6 | 28:08.23 | 5:02.66 | 126623 | 149338
7 | 33:11.14 | 4:16.70 | 149339 | 168608
8 | 37:28.09 | 5:24.67 | 168609 | 192975
9 | 42:53.01 | 4:09.38 | 192976 | 211688
10 | 47:02.39 | 5:52.69 | 211689 | 238157


Track 1

Filename C:\John Lewis - Evolution II (2000) {2014 Japan 24-bit Remaster} [Jazz Best Collection 1000 Series]\01 - The Festivals.wav

Pre-gap length 0:00:02.00

Peak level 100.0 %
Extraction speed 1.8 X
Track quality 100.0 %
Test CRC 43FF736E
Copy CRC 43FF736E
Track not present in AccurateRip database
Copy OK

Track 2

Filename C:\John Lewis - Evolution II (2000) {2014 Japan 24-bit Remaster} [Jazz Best Collection 1000 Series]\02 - One! Of Parker's Moods.wav

Pre-gap length 0:00:01.24

Peak level 100.0 %
Extraction speed 2.0 X
Track quality 100.0 %
Test CRC AD97E249
Copy CRC AD97E249
Track not present in AccurateRip database
Copy OK

Track 3

Filename C:\John Lewis - Evolution II (2000) {2014 Japan 24-bit Remaster} [Jazz Best Collection 1000 Series]\03 - December, Remember.wav

Peak level 100.0 %
Extraction speed 2.4 X
Track quality 100.0 %
Test CRC 858C62D0
Copy CRC 858C62D0
Track not present in AccurateRip database
Copy OK

Track 4

Filename C:\John Lewis - Evolution II (2000) {2014 Japan 24-bit Remaster} [Jazz Best Collection 1000 Series]\04 - That! Afternoon In Paris.wav

Pre-gap length 0:00:00.52

Peak level 100.0 %
Extraction speed 2.7 X
Track quality 100.0 %
Test CRC 72F1482E
Copy CRC 72F1482E
Track not present in AccurateRip database
Copy OK

Track 5

Filename C:\John Lewis - Evolution II (2000) {2014 Japan 24-bit Remaster} [Jazz Best Collection 1000 Series]\05 - Cain And Abel.wav

Pre-gap length 0:00:03.10

Peak level 95.7 %
Extraction speed 2.4 X
Track quality 99.9 %
Test CRC 65F67B2B
Copy CRC 65F67B2B
Track not present in AccurateRip database
Copy OK

Track 6

Filename C:\John Lewis - Evolution II (2000) {2014 Japan 24-bit Remaster} [Jazz Best Collection 1000 Series]\06 - Come Rain Or Come Shine.wav

Pre-gap length 0:00:00.52

Peak level 100.0 %
Extraction speed 3.1 X
Track quality 100.0 %
Test CRC C7D67228
Copy CRC C7D67228
Track not present in AccurateRip database
Copy OK

Track 7

Filename C:\John Lewis - Evolution II (2000) {2014 Japan 24-bit Remaster} [Jazz Best Collection 1000 Series]\07 - Trieste.wav

Pre-gap length 0:00:00.23

Peak level 94.2 %
Extraction speed 2.3 X
Track quality 99.9 %
Test CRC CEB0400D
Copy CRC CEB0400D
Track not present in AccurateRip database
Copy OK

Track 8

Filename C:\John Lewis - Evolution II (2000) {2014 Japan 24-bit Remaster} [Jazz Best Collection 1000 Series]\08 - Django.wav

Pre-gap length 0:00:00.05

Peak level 100.0 %
Extraction speed 3.4 X
Track quality 100.0 %
Test CRC FF3C26B3
Copy CRC FF3C26B3
Track not present in AccurateRip database
Copy OK

Track 9

Filename C:\John Lewis - Evolution II (2000) {2014 Japan 24-bit Remaster} [Jazz Best Collection 1000 Series]\09 - Sammy.wav

Pre-gap length 0:00:01.43

Peak level 100.0 %
Extraction speed 3.4 X
Track quality 100.0 %
Test CRC 3A50562C
Copy CRC 3A50562C
Track not present in AccurateRip database
Copy OK

Track 10

Filename C:\John Lewis - Evolution II (2000) {2014 Japan 24-bit Remaster} [Jazz Best Collection 1000 Series]\10 - What Is This Thing Called Love.wav

Pre-gap length 0:00:00.45

Peak level 100.0 %
Extraction speed 2.9 X
Track quality 99.9 %
Test CRC 63FCAF5D
Copy CRC 63FCAF5D
Track not present in AccurateRip database
Copy OK


None of the tracks are present in the AccurateRip database

No errors occurred

End of status report

==== Log checksum 57B1ADAB5469403F18DFC39D9C4DE77B1E19E31E177481004EEFDBB477F7D7A7 ====


John Lewis - Evolution II (2000) {2014 Japan Jazz Best Collection 1000 Series 24bit WPCR-27942}

John Lewis - Evolution II (2000) {2014 Japan Jazz Best Collection 1000 Series 24bit WPCR-27942}


see more Japan Jazz Best Collection 1000 Series…

NEXT -> more Japan Jazz Best Collection 1000 Series on the way…


===