Tags
Language
Tags

Johnny Smith Trio - Easy Listening (1958) {2016 Japan SHM-CD Jazz Masters Collection 1200 Series WPCR-29084}

Posted By: ruskaval
Johnny Smith Trio - Easy Listening (1958) {2016 Japan SHM-CD Jazz Masters Collection 1200 Series WPCR-29084}

Johnny Smith Trio - Easy Listening (1958) {2016 Japan SHM-CD Jazz Masters Collection 1200 Series WPCR-29084}
EAC rip (secure mode) | FLAC (tracks)+CUE+LOG -> 179 Mb | MP3 @320 -> 74 Mb
Full Artwork @ 600 dpi (jpg) -> 56 Mb | 5% repair rar | 24bit remaster
© 1958, 2016 Roost / Parlophone / Warner Music Japan | WPCR-29084
Jazz / Cool / Guitar

SHM-CD reissue. Comes with a mini-description. Features new remastering if it comes from Parlophone. The gentle genius of guitarist Johnny Smith – perfectly captured in this late nite trio session from the 50s! There's a lot more jazz here than you might guess from the "easy listening" title – and Johnny's working with drummer Charlie Mastropaolo and bassist George Roumanis, in a style that's very much in keeping with his other best Roost work at the time. Smith has this way on the strings that's like few other players of his time – a style of playing the guitar that's so gentle, so spacious, the notes come off the instrument almost by themselves – with a lightly ringing quality that's the best part of the unique Johnny Smith tone.
Johnny Smith Trio - Easy Listening (1958) {2016 Japan SHM-CD Jazz Masters Collection 1200 Series WPCR-29084}


Personnel:
Johnny Smith - guitar
George Roumanis - bass
Charlie Mastropaolo - drums

tracklist:
01 - When I Fall In Love
02 - It Might As Well Be Spring
03 - I Didn't Know What Time It Was
04 - Black Is The Color (Of My True Love's Hair)
05 - Like Someone In Love
06 - You Don't Know What Love Is
07 - Isn't It Romantic
08 - I Remember The Corn Fields
09 - A Foggy Day
10 - Scarlet Ribbons
11 - People Will Say We're In Love
12 - The Nearness Of You

Exact Audio Copy V1.1 from 23. June 2015

EAC extraction logfile from 28. September 2016, 12:04

Johnny Smith Trio / Easy Listening

Used drive : TSSTcorpCDDVDW SE-208DB Adapter: 1 ID: 2

Read mode : Secure
Utilize accurate stream : Yes
Defeat audio cache : Yes
Make use of C2 pointers : No

Read offset correction : 6
Overread into Lead-In and Lead-Out : No
Fill up missing offset samples with silence : Yes
Delete leading and trailing silent blocks : No
Null samples used in CRC calculations : Yes
Used interface : Native Win32 interface for Win NT & 2000
Gap handling : Appended to previous track

Used output format : User Defined Encoder
Selected bitrate : 1024 kBit/s
Quality : High
Add ID3 tag : No
Command line compressor : C:\Program Files (x86)\FLAC Frontend\tools\flac.exe
Additional command line options : -8 -V -T "ARTIST=%artist%" -T "TITLE=%title%" -T "ALBUM=%albumtitle%" -T "DATE=%year%" -T "TRACKNUMBER=%tracknr%" -T "TOTALTRACKS=%numtracks%" -T "GENRE=%genre%" -T "ALBUMARTIST=%albumartist%" -T "ALBUM ARTIST=%albumartist%" -T "COMMENT=EAC Secure Mode, Test & Copy, AccurateRip, FLAC -8" %source%


TOC of the extracted CD

Track | Start | Length | Start sector | End sector
––––––––––––––––––––––––––––-
1 | 0:00.00 | 2:49.47 | 0 | 12721
2 | 2:49.47 | 2:50.63 | 12722 | 25534
3 | 5:40.35 | 2:22.12 | 25535 | 36196
4 | 8:02.47 | 2:34.23 | 36197 | 47769
5 | 10:36.70 | 2:38.33 | 47770 | 59652
6 | 13:15.28 | 2:47.24 | 59653 | 72201
7 | 16:02.52 | 2:55.10 | 72202 | 85336
8 | 18:57.62 | 2:09.06 | 85337 | 95017
9 | 21:06.68 | 3:03.26 | 95018 | 108768
10 | 24:10.19 | 2:45.66 | 108769 | 121209
11 | 26:56.10 | 2:56.61 | 121210 | 134470
12 | 29:52.71 | 2:34.08 | 134471 | 146028


Track 1

Filename D:\_EAC\Johnny Smith Trio - Easy Listening (1958) [FLAC] {Roost WPCR-29084 rel 2016}\01 - When I Fall In Love.wav

Pre-gap length 0:00:02.00

Peak level 100.0 %
Extraction speed 2.1 X
Track quality 99.9 %
Test CRC 389AD560
Copy CRC 389AD560
Track not present in AccurateRip database
Copy OK

Track 2

Filename D:\_EAC\Johnny Smith Trio - Easy Listening (1958) [FLAC] {Roost WPCR-29084 rel 2016}\02 - It Might As Well Be Spring.wav

Peak level 100.0 %
Extraction speed 2.9 X
Track quality 100.0 %
Test CRC B43672A4
Copy CRC B43672A4
Track not present in AccurateRip database
Copy OK

Track 3

Filename D:\_EAC\Johnny Smith Trio - Easy Listening (1958) [FLAC] {Roost WPCR-29084 rel 2016}\03 - I Didn't Know What Time It Was.wav

Peak level 100.0 %
Extraction speed 3.0 X
Track quality 100.0 %
Test CRC EF9BA53F
Copy CRC EF9BA53F
Track not present in AccurateRip database
Copy OK

Track 4

Filename D:\_EAC\Johnny Smith Trio - Easy Listening (1958) [FLAC] {Roost WPCR-29084 rel 2016}\04 - Black Is The Color (Of My True Love's Hair).wav

Peak level 77.2 %
Extraction speed 3.1 X
Track quality 100.0 %
Test CRC 7791C488
Copy CRC 7791C488
Track not present in AccurateRip database
Copy OK

Track 5

Filename D:\_EAC\Johnny Smith Trio - Easy Listening (1958) [FLAC] {Roost WPCR-29084 rel 2016}\05 - Like Someone In Love.wav

Peak level 100.0 %
Extraction speed 3.3 X
Track quality 100.0 %
Test CRC E085EF57
Copy CRC E085EF57
Track not present in AccurateRip database
Copy OK

Track 6

Filename D:\_EAC\Johnny Smith Trio - Easy Listening (1958) [FLAC] {Roost WPCR-29084 rel 2016}\06 - You Don't Know What Love Is.wav

Peak level 100.0 %
Extraction speed 2.6 X
Track quality 99.9 %
Test CRC C1B4184E
Copy CRC C1B4184E
Track not present in AccurateRip database
Copy OK

Track 7

Filename D:\_EAC\Johnny Smith Trio - Easy Listening (1958) [FLAC] {Roost WPCR-29084 rel 2016}\07 - Isn't It Romantic.wav

Peak level 100.0 %
Extraction speed 3.6 X
Track quality 100.0 %
Test CRC 7231F1C6
Copy CRC 7231F1C6
Track not present in AccurateRip database
Copy OK

Track 8

Filename D:\_EAC\Johnny Smith Trio - Easy Listening (1958) [FLAC] {Roost WPCR-29084 rel 2016}\08 - I Remember The Corn Fields.wav

Peak level 100.0 %
Extraction speed 3.5 X
Track quality 100.0 %
Test CRC 43C35540
Copy CRC 43C35540
Track not present in AccurateRip database
Copy OK

Track 9

Filename D:\_EAC\Johnny Smith Trio - Easy Listening (1958) [FLAC] {Roost WPCR-29084 rel 2016}\09 - A Foggy Day.wav

Peak level 100.0 %
Extraction speed 3.9 X
Track quality 100.0 %
Test CRC F0541A68
Copy CRC F0541A68
Track not present in AccurateRip database
Copy OK

Track 10

Filename D:\_EAC\Johnny Smith Trio - Easy Listening (1958) [FLAC] {Roost WPCR-29084 rel 2016}\10 - Scarlet Ribbons.wav

Peak level 100.0 %
Extraction speed 4.0 X
Track quality 100.0 %
Test CRC 0B8CBDD1
Copy CRC 0B8CBDD1
Track not present in AccurateRip database
Copy OK

Track 11

Filename D:\_EAC\Johnny Smith Trio - Easy Listening (1958) [FLAC] {Roost WPCR-29084 rel 2016}\11 - People Will Say We're In Love.wav

Peak level 100.0 %
Extraction speed 4.2 X
Track quality 100.0 %
Test CRC B5AEFB90
Copy CRC B5AEFB90
Track not present in AccurateRip database
Copy OK

Track 12

Filename D:\_EAC\Johnny Smith Trio - Easy Listening (1958) [FLAC] {Roost WPCR-29084 rel 2016}\12 - The Nearness Of You.wav

Peak level 100.0 %
Extraction speed 4.1 X
Track quality 100.0 %
Test CRC 31F12D1F
Copy CRC 31F12D1F
Track not present in AccurateRip database
Copy OK


None of the tracks are present in the AccurateRip database

No errors occurred

End of status report

==== Log checksum 01AD04C81C49C771FAF394292C9A22A3EDD1650B9F81759C862228DCC74F1ABC ====


Johnny Smith Trio - Easy Listening (1958) {2016 Japan SHM-CD Jazz Masters Collection 1200 Series WPCR-29084}

Johnny Smith Trio - Easy Listening (1958) {2016 Japan SHM-CD Jazz Masters Collection 1200 Series WPCR-29084}


see more Japan SHM-CD Jazz Masters Collection 1200 Series…


===