Tags
Language
Tags

Joseph Bonner - Triangle (1975) {Whynot WNCD79405 rel 2009}

Posted By: ruskaval
Joseph Bonner - Triangle (1975) {Whynot WNCD79405 rel 2009}

Joseph Bonner - Triangle (1975) {Whynot WNCD79405 rel 2009}
EAC rip (secure mode) | FLAC (tracks)+CUE+LOG -> 323 Mb | MP3 @320 -> 136 Mb
Full Artwork @ 300 dpi (jpg) -> 18 Mb | 5% repair rar
© 1975, 2009 Whynot / Candid | WNCD79405
Jazz / Post Bop / Piano Trio

A fine pianist who was originally heavily influenced by McCoy Tyner, Joe Bonner is an excellent interpreter of modal-based music and advanced hard bop. He studied music at Virginia State College and early on played with Roy Haynes (1970-1971), Freddie Hubbard (1971-1972), Pharoah Sanders (1972-1974), and Billy Harper (late '70s). Bonner, who recorded as a leader for Muse, Theresa, and most prominently Steeplechase, has been based in Colorado since the 1980s and remains a talented improviser.
SUPERB piano trio. All but 2 pieces are originals by Bonner, all excellent compositions. His playing totally on fire, on a par with John Hicks, Mulgrew Miller at their most inspired. Clint Houston on bass is prominent and forceful, which is necessary because Billy Hart is at his most aggressive here, echoing Tony Williams' approach with Miles. None of this is overwhelming or overbearing, because Bonner really brings it and deals it – they all came to play this date. Very well recorded, detailed and everything well balanced. In my collection of maybe 40,000 titles that I've curated (I never keep the merely interesting or pretty good around; no room, no time), Triangle is in the top 1%. Great, great music.

Personnel:
Piano Joseph Bonner
Bass Clint Houston
Drums Billy Hart

tracklist:
01 Triangle 06:45
02 The Wind And The Rain 10:18
03 Mr. P.C. 07:36
04 Vega 09:58
05 Miss Greta 11:53
06 Invitation 10:59

Exact Audio Copy V1.1 from 23. June 2015

EAC extraction logfile from 28. December 2016, 0:19

Joseph Bonner / Triangle

Used drive : MATSHITADVD+-RW SW830 Adapter: 1 ID: 0

Read mode : Secure
Utilize accurate stream : Yes
Defeat audio cache : Yes
Make use of C2 pointers : No

Read offset correction : 6
Overread into Lead-In and Lead-Out : No
Fill up missing offset samples with silence : Yes
Delete leading and trailing silent blocks : No
Null samples used in CRC calculations : Yes
Used interface : Native Win32 interface for Win NT & 2000
Gap handling : Appended to previous track

Used output format : User Defined Encoder
Selected bitrate : 896 kBit/s
Quality : High
Add ID3 tag : No
Command line compressor : C:\Program Files (x86)\Exact Audio Copy\Flac\flac.exe
Additional command line options : -8 -V -T "ARTIST=%artist%" -T "TITLE=%title%" -T "ALBUM=%albumtitle%" -T "DATE=%year%" -T "TRACKNUMBER=%tracknr%" -T "TOTALTRACKS=%numtracks%" -T "GENRE=%genre%" -T "ALBUMARTIST=%albumartist%" -T "ALBUM ARTIST=%albumartist%" -T "COMMENT=EAC Secure Mode, Test & Copy, AccurateRip, FLAC -8" %source%


TOC of the extracted CD

Track | Start | Length | Start sector | End sector
––––––––––––––––––––––––––––-
1 | 0:00.00 | 6:50.58 | 0 | 30807
2 | 6:50.58 | 10:21.25 | 30808 | 77407
3 | 17:12.08 | 7:40.72 | 77408 | 111979
4 | 24:53.05 | 10:01.58 | 111980 | 157112
5 | 34:54.63 | 11:57.42 | 157113 | 210929
6 | 46:52.30 | 10:59.63 | 210930 | 260417


Track 1

Filename G:\New Rips\Joseph Bonner - Triangle (1975) [FLAC]\01 - Triangle.wav

Pre-gap length 0:00:02.00

Peak level 70.8 %
Extraction speed 5.3 X
Track quality 100.0 %
Test CRC B187FE81
Copy CRC B187FE81
Accurately ripped (confidence 1) [8173D54B] (AR v1)
Copy OK

Track 2

Filename G:\New Rips\Joseph Bonner - Triangle (1975) [FLAC]\02 - The Wind And The Rain.wav

Pre-gap length 0:00:02.38

Peak level 73.6 %
Extraction speed 6.4 X
Track quality 100.0 %
Test CRC 706C5A54
Copy CRC 706C5A54
Accurately ripped (confidence 1) [90D1604D] (AR v1)
Copy OK

Track 3

Filename G:\New Rips\Joseph Bonner - Triangle (1975) [FLAC]\03 - Mr Pc.wav

Pre-gap length 0:00:00.43

Peak level 97.0 %
Extraction speed 7.1 X
Track quality 100.0 %
Test CRC 22B6839D
Copy CRC 22B6839D
Accurately ripped (confidence 1) [E4A21A78] (AR v1)
Copy OK

Track 4

Filename G:\New Rips\Joseph Bonner - Triangle (1975) [FLAC]\04 - Vega.wav

Pre-gap length 0:00:02.40

Peak level 99.9 %
Extraction speed 7.9 X
Track quality 100.0 %
Test CRC FFFD1726
Copy CRC FFFD1726
Accurately ripped (confidence 1) [C7AAAF4B] (AR v1)
Copy OK

Track 5

Filename G:\New Rips\Joseph Bonner - Triangle (1975) [FLAC]\05 - Miss Greta.wav

Pre-gap length 0:00:01.53

Peak level 72.3 %
Extraction speed 8.7 X
Track quality 100.0 %
Test CRC 9B263F95
Copy CRC 9B263F95
Accurately ripped (confidence 1) [36C11C2B] (AR v1)
Copy OK

Track 6

Filename G:\New Rips\Joseph Bonner - Triangle (1975) [FLAC]\06 - Invitation.wav

Pre-gap length 0:00:03.27

Peak level 97.6 %
Extraction speed 9.4 X
Track quality 100.0 %
Test CRC C4150359
Copy CRC C4150359
Accurately ripped (confidence 1) [09ABE430] (AR v1)
Copy OK


All tracks accurately ripped

No errors occurred

End of status report

–– CUETools DB Plugin V2.1.6

[CTDB TOCID: gUPFxPZUVhUx9oZ5x2TlMnM8Wbg-] found
Submit result: gUPFxPZUVhUx9oZ5x2TlMnM8Wbg- has been confirmed
Track | CTDB Status
1 | (2/2) Accurately ripped
2 | (2/2) Accurately ripped
3 | (2/2) Accurately ripped
4 | (2/2) Accurately ripped
5 | (2/2) Accurately ripped
6 | (1/2) Accurately ripped


==== Log checksum 8475DCCADFC6E47EDEA1D699B8108CC464D748B4567DE177490820698D2986E0 ====


Joseph Bonner - Triangle (1975) {Whynot WNCD79405 rel 2009}

Joseph Bonner - Triangle (1975) {Whynot WNCD79405 rel 2009}



===