Subcategories

Julie London - All Through The Night (1991, Toshiba EMI # TOCJ-5357)

Posted By: luckburz
Julie London - All Through The Night (1991, Toshiba EMI # TOCJ-5357)

Julie London - All Through The Night
EAC+LOG+CUE | FLAC: 177 MB | Artwork | 5% Recovery Info
Label/Cat#: Toshiba EMI # TOCJ-5357 | Country/Year: Japan 1991, 1965
Genre: Jazz | Style: Vocal

MD5 [X] CUE [X] LOG [X] INFO TEXT [X] ARTWORK [X]

my rip [ ] not my rip [X]

Julie London - All Through The Night (1991, Toshiba EMI # TOCJ-5357)


EAC extraction logfile from 31. July 2006, 12:55 for CD
Julie London / All Through The Night

Used drive : HL-DT-STDVD-ROM GDR8162B Adapter: 1 ID: 1
Read mode : Secure with NO C2, accurate stream, disable cache
Read offset correction : 102
Overread into Lead-In and Lead-Out : No

Used output format : Internal WAV Routines
44.100 Hz; 16 Bit; Stereo

Other options :
Fill up missing offset samples with silence : Yes
Delete leading and trailing silent blocks : No
Installed external ASPI interface


Range status and errors
Selected range
Filename C:\Eac\Nuova cartella\CDImage.wav

Peak level 100.0 %
Range quality 100.0 %
CRC 59667778
Copy OK

No errors occured

End of status report

AUDIOCHECKER v2.0 beta (build 457) - by Dester - opdester@freemail.hu
~~~~~~~~~~~~~~~~~~~~~~~~~~~~~~~~~~
-=== DO NOT EDIT THIS FILE! ===-

Path: …\1965. Julie London - All Through The Night

1 -=- Julie London - All Through The Night.flac -=- CDDA (100%)

20765604

foobar2000 1.3 / Dynamic Range Meter 1.1.1
log date: 2014-12-27 04:44:59

––––––––––––––––––––––––––––––––––––––––
Analyzed: Julie London / All Through The Night
––––––––––––––––––––––––––––––––––––––––

DR Peak RMS Duration Track
––––––––––––––––––––––––––––––––––––––––
DR13 0.00 dB -16.18 dB 3:05 01-I've Got You Under My Skin
DR15 0.00 dB -17.58 dB 2:19 02-You Do Something To Me
DR15 0.00 dB -17.98 dB 2:59 03-Get Out Of Town
DR15 0.00 dB -18.61 dB 4:35 04-All Through The Night
DR13 0.00 dB -15.09 dB 4:08 05-So In Love With You
DR13 -0.20 dB -17.81 dB 3:29 06-At Long Last Love
DR14 -0.65 dB -18.52 dB 2:30 07-Easy To Love
DR13 -0.83 dB -17.22 dB 2:49 08-My Heart Belongs To Daddy
DR16 -0.26 dB -19.96 dB 4:20 09-Ev'ry Time We Say Goodbye
DR14 0.00 dB -17.66 dB 2:40 10-In The Still Of The Night
––––––––––––––––––––––––––––––––––––––––

Number of tracks: 10
Official DR value: DR14

Samplerate: 44100 Hz
Channels: 2
Bits per sample: 16
Bitrate: 756 kbps
Codec: FLAC
================================================================================



CD Info:

Julie London - All Through The Night

Label: Toshiba EMI/Liberty
Catalog#: TOCJ-5357
Format: CD, Album, Reissue
Country: Japan
Released: 1991, 1965
Genre: Jazz
Style: Vocal, Standards

Tracklist:

01. I've Got You Under My Skin (3:05)
02. You Do Something To Me (2:19)
03. Get Out Of Town (2:59)
04. All Through The Night (4:35)
05. So In Love With You (4:08)
06. At Long Last Love (3:29)
07. Easy To Love (2:30)
08. My Heart Belongs To Daddy (2:49)
09. Ev'ry Time We Say Goodbye (4:20)
10. In The Still Of The Night (2:40)

Personnel:

Julie London - vo
Bud Shank - as, fl
Russ Freeman - p, arr
Joe Pass - g
Monty Budwig - b
Colin Bailey - d

Rec.: 1965.

Review by Eugene Chadbourne

It doesn't get much better than this, either for the recording career of Julie London or the whole concept of a vocalist doing standards with a good jazz combo providing backup. Listeners who like these sorts of songs but don't enjoy the over-arranged sounds of studio big bands and orchestras will no doubt take an immediate liking to having players such as Joe Pass and the terrific drummer Colin Bailey swinging away instead. Most of the room is left to London, who is in great form here. It is a tribute to Cole Porter, who wrote enough good songs for at least five albums such as this. The ten songs chosen run the gamut from the most familiar to a bit less, although most of this composer's work has received memorable outings via the vocal pipes of one saloon singer or another. Bud Shank does his Stan Getz thing, nicely pumped up. Greatly aided by a superb studio sound and mix, London really does convincing interpretations of these songs. In fact, she may be too convincing, and one might wind up packing one's bags as she eases into the first chorus of "Get Out of Town." ~allmusicguide
Julie London - All Through The Night (1991, Toshiba EMI # TOCJ-5357)

Thanks to the original releaser & papa1954!

________________

NITROFLARE

Music Pt. 1 | | Music Pt. 2

________________