Subcategories

The Julius Hemphill Sextet - Five Chord Stud (1994) {Black Saint 120140-2 rec 1993}

Posted By: ruskaval
The Julius Hemphill Sextet - Five Chord Stud (1994) {Black Saint 120140-2 rec 1993}

The Julius Hemphill Sextet - Five Chord Stud (1994) {Black Saint 120140-2 rec 1993}
EAC rip (secure mode) | FLAC (tracks)+CUE+LOG -> 314 Mb | MP3 @320 -> 151 Mb
Full Artwork @ 300 dpi (jpg) -> 14 Mb | 5% repair rar
© 1994 Black Saint | 120140-2
Jazz / Modern Jazz / Saxophone

Although altoist Julius Hemphill gets top billing on this CD, his heart surgery in 1993 forced him to stop playing. However, this saxophone sextet was his regular group; he contributed six of the eight compositions (the other two are free improvisations) and the chancetaking heard throughout this adventurous music definitely makes most of the performances sound like they came from a Julius Hemphill recording even if his alto is missed.

The sextet has a very strong lineup (altoists Tim Berne, Marty Ehrlich and Sam Furnace, tenors James Carter and Andrew White and baritonist Fred Ho) and the resulting CD contains more than its share of variety. The music ranges from the soulful "Spiritual Chairs" and a boppish "Band Theme" to introspective ballads and wild passionate interplay. Other than Fred Ho (who is not heard from enough), each of the players has their chance to star. The generally fascinating music rewards repeated listenings but one has to have an open mind before putting it on.

Musicians
Saxophone Tim Berne
Saxophone Marty Ehrlich
Saxophone Sam Furnace
Saxophone James Carter
Saxophone Andrew White
Saxophone Fred Ho

tracks:
01 Band Theme 05:39
02 Mr. Critical 03:45
03 Shorty 06:49
04 Mirrors 05:49
05 Five Chord Stud 13:47
06 The Moat And The Bridge 07:20
07 Georgia Blue 05:49
08 Flush 07:51
09 Spiritual Chairs 07:12

Exact Audio Copy V1.1 from 23. June 2015

EAC extraction logfile from 22. December 2017, 12:43

Julius Hemphill / Five Chord Stud

Used drive : MATSHITADVD+-RW SW830 Adapter: 1 ID: 0

Read mode : Secure
Utilize accurate stream : Yes
Defeat audio cache : Yes
Make use of C2 pointers : No

Read offset correction : 6
Overread into Lead-In and Lead-Out : No
Fill up missing offset samples with silence : Yes
Delete leading and trailing silent blocks : No
Null samples used in CRC calculations : Yes
Used interface : Native Win32 interface for Win NT & 2000
Gap handling : Appended to previous track

Used output format : User Defined Encoder
Selected bitrate : 896 kBit/s
Quality : High
Add ID3 tag : No
Command line compressor : C:\Program Files (x86)\Exact Audio Copy\Flac\flac.exe
Additional command line options : -8 -V -T "ARTIST=%artist%" -T "TITLE=%title%" -T "ALBUM=%albumtitle%" -T "DATE=%year%" -T "TRACKNUMBER=%tracknr%" -T "TOTALTRACKS=%numtracks%" -T "GENRE=%genre%" -T "ALBUMARTIST=%albumartist%" -T "ALBUM ARTIST=%albumartist%" -T "COMMENT=EAC Secure Mode, Test & Copy, AccurateRip, FLAC -8" %source%


TOC of the extracted CD

Track | Start | Length | Start sector | End sector
––––––––––––––––––––––––––––-
1 | 0:00.32 | 5:38.60 | 32 | 25441
2 | 5:39.17 | 3:44.53 | 25442 | 42294
3 | 9:23.70 | 6:49.12 | 42295 | 72981
4 | 16:13.07 | 5:49.13 | 72982 | 99169
5 | 22:02.20 | 13:46.62 | 99170 | 161181
6 | 35:49.07 | 7:20.25 | 161182 | 194206
7 | 43:09.32 | 5:48.63 | 194207 | 220369
8 | 48:58.20 | 7:51.37 | 220370 | 255731
9 | 56:49.57 | 7:12.50 | 255732 | 288181


Track 1

Filename G:\New Rips\Julius Hemphill - Five Chord Stud (1994) [FLAC]\01 - Band Theme.wav

Pre-gap length 0:00:02.32

Peak level 89.4 %
Extraction speed 4.9 X
Track quality 100.0 %
Test CRC 87E6BCA9
Copy CRC 87E6BCA9
Accurately ripped (confidence 7) [4B2A5217] (AR v2)
Copy OK

Track 2

Filename G:\New Rips\Julius Hemphill - Five Chord Stud (1994) [FLAC]\02 - Mr Critical.wav

Peak level 51.1 %
Extraction speed 5.1 X
Track quality 100.0 %
Test CRC 1DEF1859
Copy CRC 1DEF1859
Accurately ripped (confidence 7) [D00923C6] (AR v2)
Copy OK

Track 3

Filename G:\New Rips\Julius Hemphill - Five Chord Stud (1994) [FLAC]\03 - Shorty.wav

Peak level 53.3 %
Extraction speed 6.1 X
Track quality 100.0 %
Test CRC 508BDF95
Copy CRC 508BDF95
Accurately ripped (confidence 7) [5E60888C] (AR v2)
Copy OK

Track 4

Filename G:\New Rips\Julius Hemphill - Five Chord Stud (1994) [FLAC]\04 - Mirrors.wav

Peak level 70.0 %
Extraction speed 6.5 X
Track quality 100.0 %
Test CRC C7CD9B1B
Copy CRC C7CD9B1B
Accurately ripped (confidence 7) [277B3867] (AR v2)
Copy OK

Track 5

Filename G:\New Rips\Julius Hemphill - Five Chord Stud (1994) [FLAC]\05 - Five Chord Stud.wav

Peak level 74.2 %
Extraction speed 7.8 X
Track quality 100.0 %
Test CRC 69EAFD46
Copy CRC 69EAFD46
Accurately ripped (confidence 7) [D42B7CC6] (AR v2)
Copy OK

Track 6

Filename G:\New Rips\Julius Hemphill - Five Chord Stud (1994) [FLAC]\06 - The Moat And The Bridge.wav

Peak level 70.0 %
Extraction speed 8.2 X
Track quality 100.0 %
Test CRC 7F965AAA
Copy CRC 7F965AAA
Accurately ripped (confidence 7) [360C5D8E] (AR v2)
Copy OK

Track 7

Filename G:\New Rips\Julius Hemphill - Five Chord Stud (1994) [FLAC]\07 - Georgia Blue.wav

Peak level 55.0 %
Extraction speed 8.4 X
Track quality 100.0 %
Test CRC A020D3DB
Copy CRC A020D3DB
Accurately ripped (confidence 7) [0B0BD9E6] (AR v2)
Copy OK

Track 8

Filename G:\New Rips\Julius Hemphill - Five Chord Stud (1994) [FLAC]\08 - Flush.wav

Peak level 77.3 %
Extraction speed 9.2 X
Track quality 100.0 %
Test CRC 108B26D1
Copy CRC 108B26D1
Accurately ripped (confidence 7) [24716A01] (AR v2)
Copy OK

Track 9

Filename G:\New Rips\Julius Hemphill - Five Chord Stud (1994) [FLAC]\09 - Spiritual Chairs.wav

Peak level 77.9 %
Extraction speed 9.5 X
Track quality 100.0 %
Test CRC A600A431
Copy CRC A600A431
Accurately ripped (confidence 7) [754FDF0F] (AR v2)
Copy OK


All tracks accurately ripped

No errors occurred

End of status report

–– CUETools DB Plugin V2.1.6

[CTDB TOCID: dq86.dZabj7ZD41pQZXr5V0XfzQ-] found
Submit result: dq86.dZabj7ZD41pQZXr5V0XfzQ- has been confirmed
Track | CTDB Status
1 | (1/1) Accurately ripped
2 | (1/1) Accurately ripped
3 | (1/1) Accurately ripped
4 | (1/1) Accurately ripped
5 | (1/1) Accurately ripped
6 | (1/1) Accurately ripped
7 | (1/1) Accurately ripped
8 | (1/1) Accurately ripped
9 | (1/1) Accurately ripped


==== Log checksum 1ABBB58860D19B35BED0B04CB7C87BF070D06D8B58B84076CE8D69E135321820 ====


The Julius Hemphill Sextet - Five Chord Stud (1994) {Black Saint 120140-2 rec 1993}

The Julius Hemphill Sextet - Five Chord Stud (1994) {Black Saint 120140-2 rec 1993}



===