Subcategories

Keith Jarrett - Birth (1972) {2001 Wounded Bird Remaster}

Posted By: ruskaval
Keith Jarrett - Birth (1972) {2001 Wounded Bird Remaster}

Keith Jarrett - Birth (1972) {2001 Wounded Bird Remaster}
EAC rip (secure mode) | FLAC+CUE+LOG -> 235 Mb| MP3 @320 -> 91 Mb | Artwork (web) ~ 2 Mb
© 2001 Atlantic / Wounded Bird | WOU 1612
Jazz / Post Bop / Modern Creative / Piano


Keith Jarrett - Birth (1972) {2001 Wounded Bird Remaster}

BIRTH, the classic 1971 album from legendary pianist Keith Jarrett, features six tracks.

Pianist Keith Jarrett's sessions of July 1971 resulted in three LPs and the birth of his finest group: a quartet (and sometimes quintet) with tenor saxophonist Dewey Redman, bassist Charlie Haden, and drummer Paul Motian. This particular album has some eccentric moments, with Jarrett switching to soprano on the effective "Mortgage on My Soul" and making appearances on steel drum, recorder, and banjo (in addition to piano) on two adventurous pieces. Redman is featured on Chinese musette during "Spirit" (which has Haden on conga and steel drums) and also plays some clarinet in addition to his usual tenor. Not everything works, and there are some wandering moments, but the music always holds one's interest; one can easily see the potential that would soon be realized by this intriguing ensemble.
Personnel: Keith Jarrett (vocals, soprano saxophone, recorder, piano, banjo, steel drums); Dewey Redman (voice, tenor saxophone, Chinese musette, bells, percussion); Charlie Haden (bass, congas, steel drums, clapper); Paul Motian (drums, steel drums, bells, percussion).

tracklist:
1. Birth
2. Mortgage on My Soul (Wah-Wah)
3. Spirit
4. Markings
5. Forget Your Memories (And They'll Remember You)
6. Remorse

Keith Jarrett - Birth (1972) {2001 Wounded Bird Remaster}

Exact Audio Copy V0.99 prebeta 5 from 4. May 2009

EAC extraction logfile from 18. December 2009, 14:36

Keith Jarrett / Birth

Used drive : TSSTcorpCD/DVDW TS-H552L Adapter: 3 ID: 0

Read mode : Secure
Utilize accurate stream : Yes
Defeat audio cache : Yes
Make use of C2 pointers : No

Read offset correction : 6
Overread into Lead-In and Lead-Out : No
Fill up missing offset samples with silence : Yes
Delete leading and trailing silent blocks : No
Null samples used in CRC calculations : Yes
Used interface : Native Win32 interface for Win NT & 2000
Gap handling : Appended to previous track

Used output format : User Defined Encoder
Selected bitrate : 1024 kBit/s
Quality : High
Add ID3 tag : No
Command line compressor : C:\Program Files\FLAC\flac.exe
Additional command line options : -6 -V -T "ARTIST=%a" -T "TITLE=%t" -T "ALBUM=%g" -T "DATE=%y" -T "TRACKNUMBER=%n" -T "GENRE=%m" -T "COMMENT=EAC FLAC -6" %s


TOC of the extracted CD

Track | Start | Length | Start sector | End sector
––––––––––––––––––––––––––––-
1 | 0:00.00 | 6:13.09 | 0 | 27983
2 | 6:13.09 | 5:38.32 | 27984 | 53365
3 | 11:51.41 | 8:38.06 | 53366 | 92221
4 | 20:29.47 | 0:37.01 | 92222 | 94997
5 | 21:06.48 | 6:57.43 | 94998 | 126315
6 | 28:04.16 | 11:22.47 | 126316 | 177512


Track 1

Filename E:\Up\Keith Jarrett - Birth (1972) {2001 Wounded Bird Remaster}\01 - Birth.wav

Pre-gap length 0:00:02.00

Peak level 78.3 %
Track quality 100.0 %
Test CRC F038DEBF
Copy CRC F038DEBF
Accurately ripped (confidence 2) [A0FFDA19]
Copy OK

Track 2

Filename E:\Up\Keith Jarrett - Birth (1972) {2001 Wounded Bird Remaster}\02 - Mortgage On My Soul (Wah-Wah).wav

Pre-gap length 0:00:02.00

Peak level 100.0 %
Track quality 100.0 %
Test CRC 9DE99DA7
Copy CRC 9DE99DA7
Accurately ripped (confidence 2) [699F1EA2]
Copy OK

Track 3

Filename E:\Up\Keith Jarrett - Birth (1972) {2001 Wounded Bird Remaster}\03 - Spirit.wav

Pre-gap length 0:00:02.00

Peak level 100.0 %
Track quality 100.0 %
Test CRC EEDB1B44
Copy CRC EEDB1B44
Accurately ripped (confidence 2) [3FAF4CD7]
Copy OK

Track 4

Filename E:\Up\Keith Jarrett - Birth (1972) {2001 Wounded Bird Remaster}\04 - Markings.wav

Pre-gap length 0:00:02.00

Peak level 77.1 %
Track quality 100.0 %
Test CRC 4B0549E7
Copy CRC 4B0549E7
Accurately ripped (confidence 2) [C53411E8]
Copy OK

Track 5

Filename E:\Up\Keith Jarrett - Birth (1972) {2001 Wounded Bird Remaster}\05 - Forget Your Memories (And They'll Remember You).wav

Pre-gap length 0:00:02.00

Peak level 100.0 %
Track quality 100.0 %
Test CRC 1C83739A
Copy CRC 1C83739A
Accurately ripped (confidence 2) [6F84C88E]
Copy OK

Track 6

Filename E:\Up\Keith Jarrett - Birth (1972) {2001 Wounded Bird Remaster}\06 - Remorse.wav

Pre-gap length 0:00:02.00

Peak level 100.0 %
Track quality 100.0 %
Test CRC 2305B40B
Copy CRC 2305B40B
Accurately ripped (confidence 2) [0881B472]
Copy OK


All tracks accurately ripped

No errors occurred

End of status report

Please don't post the links and passes in your comments…

Linkz