Subcategories

Keith Jarrett - My Foolish Heart (2007) [2CD] + Paris/London. Testament (2009) [3CD] {ECM} [combined repost]

Posted By: ruskaval
Keith Jarrett - My Foolish Heart (2007) [2CD] + Paris/London. Testament (2009) [3CD] {ECM} [combined repost]

Keith Jarrett - My Foolish Heart (2007) [2CD] + Paris/London. Testament (2009) [3CD] {ECM}
EAC rip (secure mode) | FLAC (tracks)+CUE+LOG -> 1.25 Gb | MP3 @320 -> 646 Mb
Full Artwork @ 300 dpi (jpg) -> 129 Mb | 5% repair rar
© 2007, 2009 ECM Records | ECM 2021~22 / ECM 2130~32
Jazz / Post Bop / Modern Creative / Piano

My Foolish Heart is an anniversary release celebrating 25 years of the Keith Jarrett, Gary Peacock, and Jack DeJohnette trio's traveling and performing together despite the rich and varied individual careers of its members. Recorded in 2001 at the Montreux Jazz Festival, Jarrett held the tape close to the vest until what he felt was the right time for release – whatever that means. The bottom line is, listeners are very fortunate to have it. The official live offerings by this group have always been crystalline affairs of deep swinging communication, no matter the material. Not only is My Foolish Heart no exception, it is perhaps the standard by which the others should be judged.

Keith Jarrett - My Foolish Heart (2007) [2CD] + Paris/London. Testament (2009) [3CD] {ECM} [combined repost]

Keith Jarrett, Gary Peacock, Jack DeJohnette - My Foolish Heart (2007) [2CD] {ECM}
EAC rip (secure mode) | FLAC (tracks)+CUE+LOG -> 663 Mb | MP3 @320 -> 259 Mb
Full Artwork @ 300 dpi (jpg) -> 77 Mb | 5% repair rar
© 2007 ECM Records | ECM 2021~22

Almost two hours in length, the program is comprised entirely of jazz and pop standards – beginning with a tough, limber, punchy version of Miles Davis' "Four" lasting over nine minutes. That the music begins like this, so utterly strident and swaggering, full of lyric invention and energy, is almost reason enough for purchase. The inherent commitment to the music is not measured: it's total. There are few – if any – groups in jazz that have been together for such a long time. And there are few groups new or old that are even capable enough to manage such a wide-ranging selection of the repertoire: from the title track and "Four" to "Oleo," "Straight, No Chaser," and even "Five Brothers"! But the selection of material is only the wrapper. What's inside it is not just the history of jazz but history in the making, because these three prove beyond all measure not only the vitality of the material but also the necessity of the trio interpretation of it, and indeed what is possible: bop, hard bop, post-bop, swing, and here even ragtime, played with all the seriousness and joy it demands. The readings of Fats Waller's "Ain't Misbehavin'" and "Honeysuckle Rose" and Rodgers & Hart's "You Took Advantage of Me" are wild affairs, beautifully executed, sure, but played with the requisite emotion that new interpretations require.

On this set, these tunes have been brought out of history, out of the canon of milquetoast sweetness as diversions for the purpose of entertainment, and out into the present as revelatory statements in harmony and rhythmic and lyric invention. The interplay between Peacock and DeJohnette is utterly dynamic. The way these two not only complement but also challenge one another creates a sense of balance that allows Jarrett room for flight – not into his own quirks as a musician, but into the entire universe of jazz. Peacock and DeJohnette solo a lot here, with in-the-pocket contributions to the melodic panorama of the music. The ballads, too, such as the delicate reading of Sammy Cahn and Jule Styne's "Guess I'll Hang My Tears Out to Dry" and the curious but spot-on choice for a set closer, Cahn and James Van Heusen's "Only the Lonely," are read with such sensitivity and confidence that overly reverent interpretation (a trap for any player who risks bloodlessness) is impossible; the nature of "song" is kept as the trio offers these renditions with deep emotion and a singer's sense of space and elegance. Over 13 tunes, this band offers more surprises, delights, and jaw-dropping musical acumen than even fans believed possible. As Jarrett writes in his liner notes, "There was no other night when we felt that we had to (almost literally) grab the audience by the throat and shake them into hearing what we were doing." Perhaps they were distracted by heat, bad sound, and lighting problems – Jarrett speaks to these twice in his notes – but perhaps, until they reached the ragtime segment of the set that demanded a waking response, they were just floored by the swinging intensity with which the set began. Whatever the reason, this document is a mindblower from start to finish, and there are moments when all you can do in response is look at the box slack-jawed and wonder if what you just heard really happened. It did and it does, over and over again. This set is a magical, wondrous moment in the life of a trio when it all comes pouring out as inspiration and mastery.

Personnel:
Keith Jarrett - piano
Gary Peacock - double-bass
Jack DeJohnette - drums

tracklist:
CD1

01. Four
02. My Foolish Heart
03. Oleo
04. What's New
05. The Song Is You
06. Ain't Misbehavin'

CD2
01. Honeysuckle Rose
02. You Took Advantage Of Me
03. Straight, No Chaser
04. Five Brothers
05. Guess I'll Hang My Tears Out To Dry
06. Green Dolphin Street
07. Only The Lonely

Keith Jarrett - My Foolish Heart (2007) [2CD] + Paris/London. Testament (2009) [3CD] {ECM} [combined repost]

Keith Jarrett - My Foolish Heart (2007) [2CD] + Paris/London. Testament (2009) [3CD] {ECM} [combined repost]

Exact Audio Copy V0.99 prebeta 5 from 4. May 2009

EAC extraction logfile from 24. March 2011, 16:07

Keith Jarrett · Gary Peacock · Jack DeJohnette / My Foolish Heart: Live at Montreux , Cd 01

Used drive : HL-DT-STDVDRAM GMA-4082N Adapter: 2 ID: 0

Read mode : Secure
Utilize accurate stream : Yes
Defeat audio cache : Yes
Make use of C2 pointers : No

Read offset correction : 667
Overread into Lead-In and Lead-Out : No
Fill up missing offset samples with silence : Yes
Delete leading and trailing silent blocks : No
Null samples used in CRC calculations : Yes
Used interface : Native Win32 interface for Win NT & 2000
Gap handling : Appended to previous track

Used output format : User Defined Encoder
Selected bitrate : 768 kBit/s
Quality : High
Add ID3 tag : No
Command line compressor : C:\Program Files (x86)\Exact Audio Copy\FLAC\FLAC.EXE
Additional command line options : -V -8 -T "artist=%a" -T "title=%t" -T "album=%g" -T "date=%y" -T "tracknumber=%n" -T "genre=%m" %s


TOC of the extracted CD

Track | Start | Length | Start sector | End sector
––––––––––––––––––––––––––––-
1 | 0:00.00 | 9:09.72 | 0 | 41246
2 | 9:09.72 | 12:25.34 | 41247 | 97155
3 | 21:35.31 | 6:37.35 | 97156 | 126965
4 | 28:12.66 | 7:54.06 | 126966 | 162521
5 | 36:06.72 | 7:43.58 | 162522 | 197304
6 | 43:50.55 | 6:41.12 | 197305 | 227391


Track 1

Filename D:\music\Keith Jarrett · Gary Peacock · Jack DeJohnette - 2007 - My Foolish Heart- Live at Montreux , Cd 01\01 - Four.wav

Pre-gap length 0:00:02.00

Peak level 98.6 %
Track quality 100.0 %
Test CRC C53020A0
Copy CRC C53020A0
Accurately ripped (confidence 121) [8A4F1023]
Copy OK

Track 2

Filename D:\music\Keith Jarrett · Gary Peacock · Jack DeJohnette - 2007 - My Foolish Heart- Live at Montreux , Cd 01\02 - My Foolish Heart.wav

Peak level 93.8 %
Track quality 100.0 %
Test CRC 8157DD93
Copy CRC 8157DD93
Accurately ripped (confidence 122) [B12D4F88]
Copy OK

Track 3

Filename D:\music\Keith Jarrett · Gary Peacock · Jack DeJohnette - 2007 - My Foolish Heart- Live at Montreux , Cd 01\03 - Oleo.wav

Peak level 98.6 %
Track quality 99.9 %
Test CRC CFB0E199
Copy CRC CFB0E199
Accurately ripped (confidence 121) [B1DA7210]
Copy OK

Track 4

Filename D:\music\Keith Jarrett · Gary Peacock · Jack DeJohnette - 2007 - My Foolish Heart- Live at Montreux , Cd 01\04 - What's New.wav

Peak level 89.4 %
Track quality 100.0 %
Test CRC A3D16A79
Copy CRC A3D16A79
Accurately ripped (confidence 123) [D2203468]
Copy OK

Track 5

Filename D:\music\Keith Jarrett · Gary Peacock · Jack DeJohnette - 2007 - My Foolish Heart- Live at Montreux , Cd 01\05 - The Song Is You.wav

Peak level 98.5 %
Track quality 100.0 %
Test CRC 93FF7E0B
Copy CRC 93FF7E0B
Accurately ripped (confidence 121) [5C4AB7DE]
Copy OK

Track 6

Filename D:\music\Keith Jarrett · Gary Peacock · Jack DeJohnette - 2007 - My Foolish Heart- Live at Montreux , Cd 01\06 - Ain't Misbehavin'.wav

Peak level 93.4 %
Track quality 99.9 %
Test CRC A804FB7A
Copy CRC A804FB7A
Accurately ripped (confidence 120) [E832BCA0]
Copy OK


All tracks accurately ripped

No errors occurred

End of status report

Exact Audio Copy V0.99 prebeta 5 from 4. May 2009

EAC extraction logfile from 24. March 2011, 19:58

Keith Jarrett · Gary Peacock · Jack DeJohnette / My Foolish Heart: Live at Montreux , Cd 02

Used drive : HL-DT-STDVDRAM GMA-4082N Adapter: 2 ID: 0

Read mode : Secure
Utilize accurate stream : Yes
Defeat audio cache : Yes
Make use of C2 pointers : No

Read offset correction : 667
Overread into Lead-In and Lead-Out : No
Fill up missing offset samples with silence : Yes
Delete leading and trailing silent blocks : No
Null samples used in CRC calculations : Yes
Used interface : Native Win32 interface for Win NT & 2000
Gap handling : Appended to previous track

Used output format : User Defined Encoder
Selected bitrate : 768 kBit/s
Quality : High
Add ID3 tag : No
Command line compressor : C:\Program Files (x86)\Exact Audio Copy\FLAC\FLAC.EXE
Additional command line options : -V -8 -T "artist=%a" -T "title=%t" -T "album=%g" -T "date=%y" -T "tracknumber=%n" -T "genre=%m" %s


TOC of the extracted CD

Track | Start | Length | Start sector | End sector
––––––––––––––––––––––––––––-
1 | 0:00.00 | 6:45.64 | 0 | 30438
2 | 6:45.64 | 8:54.02 | 30439 | 70490
3 | 15:39.66 | 10:05.52 | 70491 | 115917
4 | 25:45.43 | 6:36.07 | 115918 | 145624
5 | 32:21.50 | 11:09.15 | 145625 | 195814
6 | 43:30.65 | 8:18.08 | 195815 | 233172
7 | 51:48.73 | 6:15.74 | 233173 | 261371


Track 1

Filename D:\music\Keith Jarrett · Gary Peacock · Jack DeJohnette - 2007 - My Foolish Heart- Live at Montreux , Cd 02\01 - Honeysuckle Rose.wav

Pre-gap length 0:00:02.00

Peak level 98.6 %
Track quality 100.0 %
Test CRC 25BC10C4
Copy CRC 25BC10C4
Accurately ripped (confidence 112) [04BA408E]
Copy OK

Track 2

Filename D:\music\Keith Jarrett · Gary Peacock · Jack DeJohnette - 2007 - My Foolish Heart- Live at Montreux , Cd 02\02 - You Took Advantage of Me.wav

Peak level 98.5 %
Track quality 100.0 %
Test CRC 7E6C11CE
Copy CRC 7E6C11CE
Accurately ripped (confidence 111) [8632EE81]
Copy OK

Track 3

Filename D:\music\Keith Jarrett · Gary Peacock · Jack DeJohnette - 2007 - My Foolish Heart- Live at Montreux , Cd 02\03 - Straight, No Chaser.wav

Peak level 93.7 %
Track quality 99.9 %
Test CRC F0B54F2C
Copy CRC F0B54F2C
Accurately ripped (confidence 114) [E0C4D151]
Copy OK

Track 4

Filename D:\music\Keith Jarrett · Gary Peacock · Jack DeJohnette - 2007 - My Foolish Heart- Live at Montreux , Cd 02\04 - Five Brothers.wav

Peak level 98.5 %
Track quality 100.0 %
Test CRC 6289CFC0
Copy CRC 6289CFC0
Accurately ripped (confidence 114) [141B0362]
Copy OK

Track 5

Filename D:\music\Keith Jarrett · Gary Peacock · Jack DeJohnette - 2007 - My Foolish Heart- Live at Montreux , Cd 02\05 - Guess I'll Hang My Tears Out to Dry.wav

Peak level 72.1 %
Track quality 100.0 %
Test CRC 510FDBEA
Copy CRC 510FDBEA
Accurately ripped (confidence 116) [1D5A9C42]
Copy OK

Track 6

Filename D:\music\Keith Jarrett · Gary Peacock · Jack DeJohnette - 2007 - My Foolish Heart- Live at Montreux , Cd 02\06 - On Green Dolphin Street.wav

Peak level 98.6 %
Track quality 99.9 %
Test CRC 07FBC5D1
Copy CRC 07FBC5D1
Accurately ripped (confidence 115) [74DEF352]
Copy OK

Track 7

Filename D:\music\Keith Jarrett · Gary Peacock · Jack DeJohnette - 2007 - My Foolish Heart- Live at Montreux , Cd 02\07 - Only the Lonely.wav

Peak level 65.8 %
Track quality 100.0 %
Test CRC 5371F754
Copy CRC 5371F754
Accurately ripped (confidence 112) [7010DD90]
Copy OK


All tracks accurately ripped

No errors occurred

End of status report



–––––––––––––––-

Keith Jarrett - My Foolish Heart (2007) [2CD] + Paris/London. Testament (2009) [3CD] {ECM} [combined repost]

Keith Jarrett - Paris/London. Testament (2009) [3CD] {ECM}
EAC rip (secure mode) | FLAC (tracks)+CUE+LOG -> 620 Mb | MP3 @320 -> 387 Mb
Full Artwork @ 300 dpi (jpg) -> 53 Mb | 5% repair rar
© 2009 ECM Records | ECM 2130~32

This is a specially-packaged, specially-priced three CD set. Improvised, solo music from the great American pianist, recorded at two concerts that took place at the end of last year. In his liner notes, Keith gives a highly personal account of the music s inspirational genesis, which is outstanding, even by his own high standards, with powerful emotions never far from the music s surface. These are recordings to put alongside the very finest in Jarrett s solo idiom. The open format, embracing much music in shorter episodes, follows a pattern similar to that found on Radiance, but there are also flashes of the existential poetic flair which made, for instance, the Sun Bear Concerts such a special musical experience. The release of Testament coincides with the 40th anniversary of the ECM label.

Personnel: Keith Jarrett (piano).

tracklist:
CD1

Salle Pleyel, Paris November 26, 2008: Parts I - VIII

CD2
Royal Festival Hall, London December 1, 2008: Parts I - VI

CD3
Royal Festival Hall, London December 1, 2008: Parts VII - XII

Keith Jarrett - My Foolish Heart (2007) [2CD] + Paris/London. Testament (2009) [3CD] {ECM} [combined repost]

Keith Jarrett - My Foolish Heart (2007) [2CD] + Paris/London. Testament (2009) [3CD] {ECM} [combined repost]

Exact Audio Copy V0.99 prebeta 5 from 4. May 2009

EAC extraction logfile from 22. November 2009, 11:18

Keith Jarrett / Testament CD1

Used drive : HL-DT-STDVDRAM GSA-T40N Adapter: 0 ID: 0

Read mode : Secure
Utilize accurate stream : Yes
Defeat audio cache : Yes
Make use of C2 pointers : No

Read offset correction : 667
Overread into Lead-In and Lead-Out : No
Fill up missing offset samples with silence : Yes
Delete leading and trailing silent blocks : No
Null samples used in CRC calculations : Yes
Used interface : Installed external ASPI interface
Gap handling : Appended to previous track

Used output format : User Defined Encoder
Selected bitrate : 128 kBit/s
Quality : High
Add ID3 tag : No
Command line compressor : C:\Program Files\FLAC\flac.exe
Additional command line options : -8 -V -T "ARTIST=%a" -T "TITLE=%t" -T "ALBUM=%g" -T "DATE=%y" -T "TRACKNUMBER=%n" -T "GENRE=%m" -T "COMMENT=EAC FLAC -8" %s


TOC of the extracted CD

Track | Start | Length | Start sector | End sector
––––––––––––––––––––––––––––-
1 | 0:00.00 | 13:47.73 | 0 | 62097
2 | 13:47.73 | 10:35.68 | 62098 | 109790
3 | 24:23.66 | 7:05.14 | 109791 | 141679
4 | 31:29.05 | 5:33.13 | 141680 | 166667
5 | 37:02.18 | 8:45.63 | 166668 | 206105
6 | 45:48.06 | 6:30.10 | 206106 | 235365
7 | 52:18.16 | 6:58.60 | 235366 | 266775
8 | 59:17.01 | 10:10.46 | 266776 | 312571


Track 1

Filename D:\eac\01 - Paris I.wav

Pre-gap length 0:00:02.00

Peak level 66.0 %
Track quality 100.0 %
Test CRC E0737808
Copy CRC E0737808
Accurately ripped (confidence 7) [A8166BF5]
Copy OK

Track 2

Filename D:\eac\02 - Paris II.wav

Peak level 76.6 %
Track quality 99.9 %
Test CRC F90507ED
Copy CRC F90507ED
Accurately ripped (confidence 7) [24A9A69E]
Copy OK

Track 3

Filename D:\eac\03 - Paris III.wav

Peak level 98.7 %
Track quality 100.0 %
Test CRC BD3F7A2F
Copy CRC BD3F7A2F
Accurately ripped (confidence 7) [E0359DCE]
Copy OK

Track 4

Filename D:\eac\04 - Paris IV.wav

Peak level 76.4 %
Track quality 100.0 %
Test CRC 68225508
Copy CRC 68225508
Accurately ripped (confidence 7) [6BA690C9]
Copy OK

Track 5

Filename D:\eac\05 - Paris V.wav

Peak level 90.2 %
Track quality 100.0 %
Test CRC 520F60FD
Copy CRC 520F60FD
Accurately ripped (confidence 7) [B7AE6EF1]
Copy OK

Track 6

Filename D:\eac\06 - Paris VI.wav

Peak level 73.4 %
Track quality 100.0 %
Test CRC 1A4CCA10
Copy CRC 1A4CCA10
Accurately ripped (confidence 7) [62C3818B]
Copy OK

Track 7

Filename D:\eac\07 - Paris VII.wav

Peak level 66.3 %
Track quality 100.0 %
Test CRC BE6612B3
Copy CRC BE6612B3
Accurately ripped (confidence 7) [4A79B6B9]
Copy OK

Track 8

Filename D:\eac\08 - Paris VIII.wav

Peak level 98.1 %
Track quality 100.0 %
Test CRC EE165E78
Copy CRC EE165E78
Accurately ripped (confidence 7) [795D5745]
Copy OK


All tracks accurately ripped

No errors occurred

End of status report

Exact Audio Copy V0.99 prebeta 5 from 4. May 2009

EAC extraction logfile from 22. November 2009, 12:10

Keith Jarrett / Testament CD2

Used drive : HL-DT-STDVDRAM GSA-T40N Adapter: 0 ID: 0

Read mode : Secure
Utilize accurate stream : Yes
Defeat audio cache : Yes
Make use of C2 pointers : No

Read offset correction : 667
Overread into Lead-In and Lead-Out : No
Fill up missing offset samples with silence : Yes
Delete leading and trailing silent blocks : No
Null samples used in CRC calculations : Yes
Used interface : Installed external ASPI interface
Gap handling : Appended to previous track

Used output format : User Defined Encoder
Selected bitrate : 128 kBit/s
Quality : High
Add ID3 tag : No
Command line compressor : C:\Program Files\FLAC\flac.exe
Additional command line options : -8 -V -T "ARTIST=%a" -T "TITLE=%t" -T "ALBUM=%g" -T "DATE=%y" -T "TRACKNUMBER=%n" -T "GENRE=%m" -T "COMMENT=EAC FLAC -8" %s


TOC of the extracted CD

Track | Start | Length | Start sector | End sector
––––––––––––––––––––––––––––-
1 | 0:00.00 | 11:08.63 | 0 | 50162
2 | 11:08.63 | 8:10.09 | 50163 | 86921
3 | 19:18.72 | 6:50.12 | 86922 | 117683
4 | 26:09.09 | 5:58.19 | 117684 | 144552
5 | 32:07.28 | 10:34.13 | 144553 | 192115
6 | 42:41.41 | 6:52.23 | 192116 | 223038


Track 1

Filename D:\eac\01 - part i [london, dec 1 2008].wav

Pre-gap length 0:00:02.00

Peak level 91.7 %
Track quality 100.0 %
Test CRC D998C1A5
Copy CRC D998C1A5
Accurately ripped (confidence 7) [0897526A]
Copy OK

Track 2

Filename D:\eac\02 - part ii [london, dec 1 2008].wav

Peak level 83.9 %
Track quality 99.9 %
Test CRC FA48C900
Copy CRC FA48C900
Accurately ripped (confidence 7) [16D1C487]
Copy OK

Track 3

Filename D:\eac\03 - part iii [london, dec 1 2008].wav

Peak level 78.7 %
Track quality 100.0 %
Test CRC 61764D7B
Copy CRC 61764D7B
Accurately ripped (confidence 7) [6CDEF34C]
Copy OK

Track 4

Filename D:\eac\04 - part iv [london, dec 1 2008].wav

Peak level 72.5 %
Track quality 100.0 %
Test CRC CD6594EA
Copy CRC CD6594EA
Accurately ripped (confidence 7) [8B0B22AC]
Copy OK

Track 5

Filename D:\eac\05 - part v [london, dec 1 2008].wav

Peak level 79.3 %
Track quality 100.0 %
Test CRC AC4D500F
Copy CRC AC4D500F
Accurately ripped (confidence 7) [CE6D0152]
Copy OK

Track 6

Filename D:\eac\06 - part vi [london, dec 1 2008].wav

Peak level 73.2 %
Track quality 100.0 %
Test CRC A1A2A82F
Copy CRC A1A2A82F
Accurately ripped (confidence 7) [2A18AD45]
Copy OK


All tracks accurately ripped

No errors occurred

End of status report

Exact Audio Copy V0.99 prebeta 5 from 4. May 2009

EAC extraction logfile from 22. November 2009, 12:52

Keith Jarrett / Testament CD3

Used drive : HL-DT-STDVDRAM GSA-T40N Adapter: 0 ID: 0

Read mode : Secure
Utilize accurate stream : Yes
Defeat audio cache : Yes
Make use of C2 pointers : No

Read offset correction : 667
Overread into Lead-In and Lead-Out : No
Fill up missing offset samples with silence : Yes
Delete leading and trailing silent blocks : No
Null samples used in CRC calculations : Yes
Used interface : Installed external ASPI interface
Gap handling : Appended to previous track

Used output format : User Defined Encoder
Selected bitrate : 128 kBit/s
Quality : High
Add ID3 tag : No
Command line compressor : C:\Program Files\FLAC\flac.exe
Additional command line options : -8 -V -T "ARTIST=%a" -T "TITLE=%t" -T "ALBUM=%g" -T "DATE=%y" -T "TRACKNUMBER=%n" -T "GENRE=%m" -T "COMMENT=EAC FLAC -8" %s


TOC of the extracted CD

Track | Start | Length | Start sector | End sector
––––––––––––––––––––––––––––-
1 | 0:00.00 | 8:59.38 | 0 | 40462
2 | 8:59.38 | 8:00.69 | 40463 | 76531
3 | 17:00.32 | 3:55.54 | 76532 | 94210
4 | 20:56.11 | 5:35.29 | 94211 | 119364
5 | 26:31.40 | 8:25.60 | 119365 | 157299
6 | 34:57.25 | 8:29.55 | 157300 | 195529


Track 1

Filename D:\eac\01 - part vii [london, dec 1, 2008].wav

Pre-gap length 0:00:02.00

Peak level 91.3 %
Track quality 100.0 %
Test CRC 6BE81574
Copy CRC 6BE81574
Accurately ripped (confidence 7) [E6F97145]
Copy OK

Track 2

Filename D:\eac\02 - part viii [london, dec 1, 2008].wav

Peak level 83.8 %
Track quality 100.0 %
Test CRC 7EC0D69A
Copy CRC 7EC0D69A
Accurately ripped (confidence 7) [663CF9B0]
Copy OK

Track 3

Filename D:\eac\03 - part ix [london, dec 1, 2008].wav

Peak level 75.9 %
Track quality 100.0 %
Test CRC 2C174937
Copy CRC 2C174937
Accurately ripped (confidence 7) [7767C4C7]
Copy OK

Track 4

Filename D:\eac\04 - part x [london, dec 1, 2008].wav

Peak level 97.3 %
Track quality 99.9 %
Test CRC 5D0E7A6B
Copy CRC 5D0E7A6B
Accurately ripped (confidence 7) [430D3DC2]
Copy OK

Track 5

Filename D:\eac\05 - part xi [london, dec 1, 2008].wav

Peak level 85.0 %
Track quality 100.0 %
Test CRC B2CD5798
Copy CRC B2CD5798
Accurately ripped (confidence 7) [05D2F49E]
Copy OK

Track 6

Filename D:\eac\06 - part xii [london, dec 1, 2008].wav

Peak level 92.9 %
Track quality 99.9 %
Test CRC D6099292
Copy CRC D6099292
Accurately ripped (confidence 7) [120F2A84]
Copy OK


All tracks accurately ripped

No errors occurred

End of status report


All thanks goes to the original releaser!


Keith Jarrett, Gary Peacock, Jack DeJohnette - My Foolish Heart (2007) [2CD] {ECM}

UPLOADED Linkz

BITSHARE Linkz



Keith Jarrett - Paris/London. Testament (2009) [3CD] {ECM}

UPLOADED Linkz

BITSHARE Linkz