Subcategories

Kenny Burrell – At The Five Spot Cafe (1959)(Blue Note USA Pressing)(CDP 746538 2)

Posted By: janwal46
Kenny Burrell – At The Five Spot Cafe (1959)(Blue Note USA Pressing)(CDP 746538 2)

Kenny Burrell – At The Five Spot Cafe (1959)(Blue Note USA Pressing)(CDP 746538 2)

Kenny Burrell – At The Five Spot Cafe (1959)(Blue Note USA Pressing)(CDP 746538 2)

Kenny Burrell – At The Five Spot Cafe (1959)(Blue Note USA Pressing)(CDP 746538 2)
1959 | Jazz | EAC RIP | FLAC+CUE+LOG+HQ-Covers(400Dpi) | 406Mb+11Mb

This is a great live set with a lot of the tracks lengthy enough to give everybody a decent taste. There is so little of Tina Brooks available (he died young) that anything (4 tracks here) is welcome. Burrell loved the blues, but only 3 tunes are blues; one, BIRK'S WORKS, is a 10-minute workout on the form and very good. SWINGIN' is a nice original by Clifford Brown, where Blakey is front-and-center. Hanna is best on the blues waltz BEEF STEW BLUES. One of Kenny Burrell's best albums. Recommended.

Personnel:

Kenny Burrell - Guitar
Tina Brooks - Tenor Saxophone
Bobby Timmons, Roland Hanna - Piano
Ben Tucker - Bass
Art Blakey – Drums

Recorded by Rudy Van Gelder on August 25, 1959

Tracklist:

01 - Birk's Works
02 - Lady Be Good
03 - Lover Man
04 - Swingin'
05 - Hallelujah
06 - Beef Stew Blues
07 - If You Could See Me Now
08 - 36-23-36

Exact Audio Copy V0.99 prebeta 4 from 23. January 2008

EAC extraction logfile from 11. June 2009, 23:00

Kenny Burrell / At The Five Spot Cafe

Used drive : _NEC DVD_RW ND-3520A Adapter: 1 ID: 1

Read mode : Secure
Utilize accurate stream : Yes
Defeat audio cache : No
Make use of C2 pointers : No

Read offset correction : 48
Overread into Lead-In and Lead-Out : No
Fill up missing offset samples with silence : Yes
Delete leading and trailing silent blocks : No
Null samples used in CRC calculations : No
Used interface : Native Win32 interface for Win NT & 2000

Used output format : Internal WAV Routines
Sample format : 44.100 Hz; 16 Bit; Stereo


TOC of the extracted CD

Track | Start | Length | Start sector | End sector
––––––––––––––––––––––––––––-
1 | 0:00.00 | 9:48.38 | 0 | 44137
2 | 9:48.38 | 9:59.67 | 44138 | 89129
3 | 19:48.30 | 8:22.68 | 89130 | 126847
4 | 28:11.23 | 9:52.25 | 126848 | 171272
5 | 38:03.48 | 11:43.10 | 171273 | 224007
6 | 49:46.58 | 4:35.52 | 224008 | 244684
7 | 54:22.35 | 5:29.58 | 244685 | 269417
8 | 59:52.18 | 3:48.60 | 269418 | 286577


Range status and errors

Selected range

Filename G:\AVAXHOME\Kenny Burrell - At The Five Spot Cafe (1959)\Kenny Burrell - At The Five Spot Cafe.wav

Peak level 100.0 %
Range quality 100.0 %
Copy CRC D044C49D
Copy OK

No errors occurred


AccurateRip summary

Track 1 accurately ripped (confidence 3) [F8D881BB]
Track 2 accurately ripped (confidence 3) [DCF450B8]
Track 3 accurately ripped (confidence 3) [CFD8DE75]
Track 4 accurately ripped (confidence 3) [AB54654A]
Track 5 accurately ripped (confidence 3) [CA58AD54]
Track 6 accurately ripped (confidence 2) [6930D549]
Track 7 accurately ripped (confidence 2) [AEC41141]
Track 8 accurately ripped (confidence 2) [725F1B1D]

All tracks accurately ripped

End of status report

RIPPED BY JANWAL46

RS Links: