Subcategories

Kenny Dorham – ‘Round About Midnight At The Cafe Bohemia Vol. 2 (1956)(Blue Note USA Pressing)(CDP 746542 2)

Posted By: janwal46
Kenny Dorham – ‘Round About Midnight At The Cafe Bohemia Vol. 2 (1956)(Blue Note USA Pressing)(CDP 746542 2)

Kenny Dorham – ‘Round About Midnight At The Cafe Bohemia Vol. 2 (1956)(Blue Note USA Pressing)(CDP 746542 2)

Kenny Dorham – ‘Round About Midnight At The Cafe Bohemia Vol. 2 (1956)(Blue Note USA Pressing)(CDP 746542 2)

Kenny Dorham – ‘Round About Midnight At The Cafe Bohemia Vol. 2 (1956)(Blue Note USA Pressing)(CDP 746542 2)
1956 | Jazz | EAC RIP | FLAC+CUE+LOG+HQ-Covers(400Dpi) | 365Mb+8Mb

The second of two CDs taken from one night's performance by trumpeter Kenny Dorham's short-lived group, the Jazz Prophets (featuring J.R. Monterose on tenor, guitarist Kenny Burrell, pianist Bobby Timmons, bassist Sam Jones and drummer Arthur Edgehill), has eight selections released for the first time on this CD. The music is spirited hard bop and the repertoire has six of Dorham's originals (several of which deserve to be revived) along with the standards "My Heart Stood Still" and "Who Cares."

Personnel:

Kenny Dorham - Trumpet
J.R. Monterose - Tenor Saxophone
Bobby Timmons - Piano
Kenny Burrell - Guitar
Sam Jones - Bass
Arthur Edgehill - Drums

Recorded by Rudy Van Gelder on Mai 31, 1956

Tracklist:

01 – Royal Roost
02 – My Heart Stood Still
03 – The Prophet
04 – K.D.’s Blues (Alternate Take)
05 – Riffin’
06 – Who Cares (Alternate Take)
07 – Monaco (Alternate Take)
08 – N.Y. Theme

Exact Audio Copy V0.99 prebeta 4 from 23. January 2008

EAC extraction logfile from 10. June 2009, 18:28

Kenny Dorham / 'Round About Midnight At The Cafe Bohemia: Vol. II

Used drive : Optiarc DVD RW AD-7173A Adapter: 1 ID: 0

Read mode : Secure
Utilize accurate stream : Yes
Defeat audio cache : No
Make use of C2 pointers : No

Read offset correction : 48
Overread into Lead-In and Lead-Out : No
Fill up missing offset samples with silence : Yes
Delete leading and trailing silent blocks : No
Null samples used in CRC calculations : No
Used interface : Native Win32 interface for Win NT & 2000

Used output format : Internal WAV Routines
Sample format : 44.100 Hz; 16 Bit; Stereo


TOC of the extracted CD

Track | Start | Length | Start sector | End sector
––––––––––––––––––––––––––––-
1 | 0:00.00 | 8:40.20 | 0 | 39019
2 | 8:40.20 | 7:50.13 | 39020 | 74282
3 | 16:30.33 | 6:18.42 | 74283 | 102674
4 | 22:49.00 | 9:49.10 | 102675 | 146859
5 | 32:38.10 | 7:43.70 | 146860 | 181654
6 | 40:22.05 | 4:57.58 | 181655 | 203987
7 | 45:19.63 | 5:47.62 | 203988 | 230074
8 | 51:07.50 | 5:35.50 | 230075 | 255249


Range status and errors

Selected range

Filename G:\AVAXHOME\Kenny Dorham - 'Round About Midnight At The Cafe Bohemia Vol. 2 (1956)\Kenny Dorham - 'Round About Midnight At The Cafe Bohemia Vol. 2.wav

Peak level 85.1 %
Range quality 99.9 %
Copy CRC 190D6F41
Copy OK

No errors occurred


AccurateRip summary

Track 1 accurately ripped (confidence 5) [A2DC0A4A]
Track 2 accurately ripped (confidence 5) [D12FAB6D]
Track 3 accurately ripped (confidence 5) [40387FE6]
Track 4 accurately ripped (confidence 5) [BEDF2215]
Track 5 accurately ripped (confidence 5) [2CD7A435]
Track 6 accurately ripped (confidence 5) [7335A5AA]
Track 7 accurately ripped (confidence 5) [B1CA9CA0]
Track 8 accurately ripped (confidence 5) [F85AA98D]

All tracks accurately ripped

End of status report

RIPPED BY JANWAL46

RS Links: