Subcategories

Masabumi Kikuchi, Gary Peacock, Paul Motian - Tethered Moon (1991) {2015 Japan King Super Jazz Collection 50 Series KICJ-2486}

Posted By: ruskaval
Masabumi Kikuchi, Gary Peacock, Paul Motian - Tethered Moon (1991) {2015 Japan King Super Jazz Collection 50 Series KICJ-2486}

Masabumi Kikuchi, Gary Peacock, Paul Motian - Tethered Moon (1991) {2015 Japan King Super Jazz Collection 50 Series KICJ-2486}
EAC rip (secure mode) | FLAC (tracks)+CUE+LOG -> 299 Mb | MP3 @320 -> 135 Mb
Full Artwork @ 600 dpi (png) -> 227 Mb | 5% repair rar
© 1991, 2015 King Record Japan | KICJ-2486
Jazz / Post Bop / Avant-Garde Jazz / Piano Trio

Reissue with the latest remastering. A great later date from Japanese pianist Masabumi Kikuchi – a player we love for his groundbreaking work in the 70s, and who still sounds equally great here in the company of bassist Gary Peacock and drummer Paul Motian! Kikuchi's got a sharp tone that really grabs our ears right away – an attack that's maybe a bit different than the sort of player you might normally hear alongside Peacock or Motian – recorded with a brilliant sound that brings all his highlights into focus, while still making giving the drums and bass equal space in the spotlight. Tracks are longish, and titles include great Peacock originals "PS", "Moor", and "Moniker" – plus Kikuchi's "Tethered Moon".
Masabumi Kikuchi, Gary Peacock, Paul Motian - Tethered Moon (1991) {2015 Japan King Super Jazz Collection 50 Series KICJ-2486}


Personnel:
Masabumi "Poo" Kikuchi - piano
Gary Peacock - bass
Paul Motian - drums

tracklist:
01 - You're My Everything
02 - Misterioso
03 - So In Love
04 - Moniker
05 - P.S.
06 - Moor
07 - Tethered Moon

Exact Audio Copy V1.1 from 23. June 2015

EAC extraction logfile from 7. May 2016, 16:57

Masabumi Kikuchi, Gary Peacock, Paul Motian / Tethered Moon

Used drive : TSSTcorpCDDVDW SE-208DB Adapter: 1 ID: 0

Read mode : Secure
Utilize accurate stream : Yes
Defeat audio cache : Yes
Make use of C2 pointers : No

Read offset correction : 6
Overread into Lead-In and Lead-Out : No
Fill up missing offset samples with silence : Yes
Delete leading and trailing silent blocks : No
Null samples used in CRC calculations : Yes
Used interface : Native Win32 interface for Win NT & 2000
Gap handling : Appended to previous track

Used output format : User Defined Encoder
Selected bitrate : 1024 kBit/s
Quality : High
Add ID3 tag : No
Command line compressor : C:\Program Files (x86)\FLAC Frontend\tools\flac.exe
Additional command line options : -8 -V -T "ARTIST=%artist%" -T "TITLE=%title%" -T "ALBUM=%albumtitle%" -T "DATE=%year%" -T "TRACKNUMBER=%tracknr%" -T "TOTALTRACKS=%numtracks%" -T "GENRE=%genre%" -T "ALBUMARTIST=%albumartist%" -T "ALBUM ARTIST=%albumartist%" -T "COMMENT=EAC Secure Mode, Test & Copy, AccurateRip, FLAC -8" %source%


TOC of the extracted CD

Track | Start | Length | Start sector | End sector
––––––––––––––––––––––––––––-
1 | 0:00.00 | 5:26.70 | 0 | 24519
2 | 5:26.70 | 9:47.36 | 24520 | 68580
3 | 15:14.31 | 4:23.17 | 68581 | 88322
4 | 19:37.48 | 5:41.53 | 88323 | 113950
5 | 25:19.26 | 9:37.61 | 113951 | 157286
6 | 34:57.12 | 8:45.19 | 157287 | 196680
7 | 43:42.31 | 14:07.00 | 196681 | 260205


Track 1

Filename D:\_EAC\Masabumi Kikuchi, Gary Peacock, Paul Motian - Tethered Moon (1991) [FLAC] {KICJ-2486}\01 - You're My Everything.wav

Pre-gap length 0:00:02.00

Peak level 99.4 %
Extraction speed 3.1 X
Track quality 100.0 %
Test CRC 315E637A
Copy CRC 315E637A
Accurately ripped (confidence 2) [5828D96E] (AR v2)
Copy OK

Track 2

Filename D:\_EAC\Masabumi Kikuchi, Gary Peacock, Paul Motian - Tethered Moon (1991) [FLAC] {KICJ-2486}\02 - Misterioso.wav

Pre-gap length 0:00:01.46

Peak level 99.2 %
Extraction speed 3.7 X
Track quality 100.0 %
Test CRC BDA6E503
Copy CRC BDA6E503
Accurately ripped (confidence 2) [3C9DB593] (AR v2)
Copy OK

Track 3

Filename D:\_EAC\Masabumi Kikuchi, Gary Peacock, Paul Motian - Tethered Moon (1991) [FLAC] {KICJ-2486}\03 - So In Love.wav

Pre-gap length 0:00:03.29

Peak level 99.2 %
Extraction speed 3.9 X
Track quality 100.0 %
Test CRC 85848CB9
Copy CRC 85848CB9
Accurately ripped (confidence 2) [66EF11A1] (AR v2)
Copy OK

Track 4

Filename D:\_EAC\Masabumi Kikuchi, Gary Peacock, Paul Motian - Tethered Moon (1991) [FLAC] {KICJ-2486}\04 - Moniker.wav

Pre-gap length 0:00:02.28

Peak level 100.0 %
Extraction speed 4.3 X
Track quality 100.0 %
Test CRC 4094E518
Copy CRC 4094E518
Accurately ripped (confidence 2) [61ECA9EB] (AR v2)
Copy OK

Track 5

Filename D:\_EAC\Masabumi Kikuchi, Gary Peacock, Paul Motian - Tethered Moon (1991) [FLAC] {KICJ-2486}\05 - P.S..wav

Pre-gap length 0:00:01.17

Peak level 75.5 %
Extraction speed 4.8 X
Track quality 100.0 %
Test CRC 5183FA37
Copy CRC 5183FA37
Accurately ripped (confidence 2) [0DA98A6D] (AR v2)
Copy OK

Track 6

Filename D:\_EAC\Masabumi Kikuchi, Gary Peacock, Paul Motian - Tethered Moon (1991) [FLAC] {KICJ-2486}\06 - Moor.wav

Pre-gap length 0:00:02.42

Peak level 100.0 %
Extraction speed 5.2 X
Track quality 100.0 %
Test CRC 36246A53
Copy CRC 36246A53
Accurately ripped (confidence 2) [9554B74D] (AR v2)
Copy OK

Track 7

Filename D:\_EAC\Masabumi Kikuchi, Gary Peacock, Paul Motian - Tethered Moon (1991) [FLAC] {KICJ-2486}\07 - Tethered Moon.wav

Pre-gap length 0:00:03.29

Peak level 98.7 %
Extraction speed 5.8 X
Track quality 100.0 %
Test CRC B9D783C6
Copy CRC B9D783C6
Accurately ripped (confidence 2) [188A7C38] (AR v2)
Copy OK


All tracks accurately ripped

No errors occurred

End of status report

==== Log checksum FB023A1BFAA8E44F49DC73D4CD77D36550CB955EE19F089F0821320B4B7D2579 ====


Masabumi Kikuchi, Gary Peacock, Paul Motian - Tethered Moon (1991) {2015 Japan King Super Jazz Collection 50 Series KICJ-2486}

Masabumi Kikuchi, Gary Peacock, Paul Motian - Tethered Moon (1991) {2015 Japan King Super Jazz Collection 50 Series KICJ-2486}


More Masabumi Kikuchi…

NEXT -> More Masabumi Kikuchi & 2015 Japan King Super Jazz Collection 50 Series on the way…