Subcategories

Angelika Kirschschlager - Gustav & Alma Mahler / Erich Wolfgang Korngold: Lieder (1996)

Posted By: luckburz
Angelika Kirschschlager - Gustav & Alma Mahler / Erich Wolfgang Korngold: Lieder (1996)

Gustav & Alma Mahler / Erich Wolfgang Korngold - Lieder
Angelika Kirschschlager / Helmut Deutsch, piano
EAC+LOG+CUE | FLAC: 257 MB | Full Artwork: 161 MB | 5% Recovery Info
Label/Cat#: Sony Classical # SK 68344 | Country/Year: Germany 1996
Genre: Classical | Style: Romantic, Early 20th Century, Vocal, Lied

MD5 [X] CUE [X] LOG [X] INFO TEXT [X] ARTWORK [X]

my rip [X] not my rip []

Angelika Kirschschlager - Gustav & Alma Mahler / Erich Wolfgang Korngold: Lieder (1996)


Exact Audio Copy V1.0 beta 3 from 29. August 2011

EAC extraction logfile from 1. September 2013, 11:19

Angelika Kirschschlager, Helmut Deutsch / Mahler, Korngold: Lieder

Used drive : PIONEER BD-RW BDR-206 Adapter: 0 ID: 2

Read mode : Secure
Utilize accurate stream : Yes
Defeat audio cache : Yes
Make use of C2 pointers : No

Read offset correction : 667
Overread into Lead-In and Lead-Out : No
Fill up missing offset samples with silence : Yes
Delete leading and trailing silent blocks : No
Null samples used in CRC calculations : Yes
Used interface : Native Win32 interface for Win NT & 2000

Used output format : User Defined Encoder
Selected bitrate : 1024 kBit/s
Quality : High
Add ID3 tag : Yes
Command line compressor : C:\Program Files\FLAC\flac.exe
Additional command line options : -5 -T "Artist=%artist%" -T "Title=%title%" -T "Album=%albumtitle%" -T "Date=%year%" -T "Tracknumber=%tracknr%" -T "Genre=%genre%" %source% -o %dest%


TOC of the extracted CD

Track | Start | Length | Start sector | End sector
––––––––––––––––––––––––––––-
1 | 0:00.00 | 2:16.70 | 0 | 10269
2 | 2:16.70 | 2:18.42 | 10270 | 20661
3 | 4:35.37 | 1:24.35 | 20662 | 26996
4 | 5:59.72 | 1:00.45 | 26997 | 31541
5 | 7:00.42 | 2:06.00 | 31542 | 40991
6 | 9:06.42 | 2:58.18 | 40992 | 54359
7 | 12:04.60 | 4:57.05 | 54360 | 76639
8 | 17:01.65 | 1:50.57 | 76640 | 84946
9 | 18:52.47 | 1:55.00 | 84947 | 93571
10 | 20:47.47 | 1:09.73 | 93572 | 98819
11 | 21:57.45 | 2:06.07 | 98820 | 108276
12 | 24:03.52 | 2:10.58 | 108277 | 118084
13 | 26:14.35 | 0:50.52 | 118085 | 121886
14 | 27:05.12 | 0:50.53 | 121887 | 125689
15 | 27:55.65 | 3:14.32 | 125690 | 140271
16 | 31:10.22 | 2:05.23 | 140272 | 149669
17 | 33:15.45 | 2:20.42 | 149670 | 160211
18 | 35:36.12 | 2:13.23 | 160212 | 170209
19 | 37:49.35 | 1:35.15 | 170210 | 177349
20 | 39:24.50 | 2:09.12 | 177350 | 187036
21 | 41:33.62 | 2:00.65 | 187037 | 196101
22 | 43:34.52 | 4:23.18 | 196102 | 215844
23 | 47:57.70 | 2:02.02 | 215845 | 224996
24 | 49:59.72 | 1:11.40 | 224997 | 230361
25 | 51:11.37 | 3:48.15 | 230362 | 247476
26 | 54:59.52 | 1:40.33 | 247477 | 255009
27 | 56:40.10 | 2:20.67 | 255010 | 265576
28 | 59:01.02 | 4:17.55 | 265577 | 284906
29 | 63:18.57 | 1:44.18 | 284907 | 292724


Range status and errors

Selected range

Filename F:\=== VINYL RIPS ===\=== EAC===\X FRESH RIP\Angelika Kirschschlager, Helmut Deutsch - Mahler, Korngold- Lieder.wav

Peak level 99.8 %
Extraction speed 7.7 X
Range quality 99.9 %
Copy CRC B7A8C9FA
Copy OK

No errors occurred


AccurateRip summary

Track 1 accurately ripped (confidence 6) [80E23CE7] (AR v1)
Track 2 accurately ripped (confidence 6) [A7230F87] (AR v1)
Track 3 accurately ripped (confidence 6) [EB70518C] (AR v1)
Track 4 accurately ripped (confidence 6) [A6B528DF] (AR v1)
Track 5 accurately ripped (confidence 6) [EDA820AF] (AR v1)
Track 6 accurately ripped (confidence 6) [855158C6] (AR v1)
Track 7 accurately ripped (confidence 6) [DEB544F6] (AR v1)
Track 8 accurately ripped (confidence 6) [549A9FE9] (AR v1)
Track 9 accurately ripped (confidence 6) [C081F9C3] (AR v1)
Track 10 accurately ripped (confidence 6) [D241FCA3] (AR v1)
Track 11 accurately ripped (confidence 6) [C697441A] (AR v1)
Track 12 accurately ripped (confidence 6) [4A6B659B] (AR v1)
Track 13 accurately ripped (confidence 6) [085A95DA] (AR v1)
Track 14 accurately ripped (confidence 6) [002AEF08] (AR v1)
Track 15 accurately ripped (confidence 6) [70C75257] (AR v1)
Track 16 accurately ripped (confidence 6) [5EE8C4D3] (AR v1)
Track 17 accurately ripped (confidence 6) [131C9C6A] (AR v1)
Track 18 accurately ripped (confidence 6) [4CE58691] (AR v1)
Track 19 accurately ripped (confidence 6) [8550118B] (AR v1)
Track 20 accurately ripped (confidence 6) [43E138FB] (AR v1)
Track 21 accurately ripped (confidence 6) [7E2DF592] (AR v1)
Track 22 accurately ripped (confidence 6) [75614565] (AR v1)
Track 23 accurately ripped (confidence 6) [0FBCA6C4] (AR v1)
Track 24 accurately ripped (confidence 6) [832E4C50] (AR v1)
Track 25 accurately ripped (confidence 6) [DE7C9114] (AR v1)
Track 26 accurately ripped (confidence 6) [8E32053C] (AR v1)
Track 27 accurately ripped (confidence 6) [5DFF9F9A] (AR v1)
Track 28 accurately ripped (confidence 5) [D26261A2] (AR v1)
Track 29 accurately ripped (confidence 6) [B0AEC135] (AR v1)

All tracks accurately ripped

End of status report

–– CUETools DB Plugin V2.1.3

[CTDB TOCID: 6.BwAi6ZJf4Z3BgiSn1jFFhHOK8-] disk not present in database, Submit result: 6.BwAi6ZJf4Z3BgiSn1jFFhHOK8- has been uploaded


==== Log checksum 33A9DFC70F77FE4A6A5F93F5C1D53EE866F21765D1B55F8E4FA23F56C38CD4CF ====

foobar2000 1.1.14a / Dynamic Range Meter 1.1.1
log date: 2013-09-07 22:16:59

––––––––––––––––––––––––––––––––––––––––
Analyzed: Angelika Kirschschlager, Helmut Deutsch / Mahler, Korngold: Lieder
––––––––––––––––––––––––––––––––––––––––

DR Peak RMS Duration Track
––––––––––––––––––––––––––––––––––––––––
DR12 -0.16 dB -22.33 dB 2:17 01-Korngold - Glückwunsch op. 38/1 (Dehmel)
DR13 -1.48 dB -22.87 dB 2:19 02-Korngold - Der Kranke op. 38/2 (Eichendorff)
DR15 -9.42 dB -29.80 dB 1:24 03-Korngold - Alt-spanisch op. 38/3
DR14 -3.33 dB -20.98 dB 1:01 04-Korngold - Old English Song op. 38/4
DR13 -0.05 dB -19.54 dB 2:06 05-Korngold - My Mistress' Eyes op. 38/5 (Shakespeare)
DR15 -3.66 dB -25.97 dB 2:58 06-Mahler-Werfel - Die stille Stadt (Dehmel)
DR15 -0.11 dB -21.21 dB 4:57 07-Mahler-Werfel - In meines Vater Garten (Hartleben)
DR13 -0.97 dB -21.39 dB 1:51 08-Mahler-Werfel - Laue Sommernacht (Bierbaum)
DR14 -4.90 dB -27.23 dB 1:55 09-Mahler-Werfel - Bei dir ist es traut(Rilke)
DR15 -0.32 dB -24.74 dB 1:10 10-Mahler-Werfel - Ich wandle unter Blumen (Heine)
DR14 -3.32 dB -24.74 dB 2:06 11-Korngold - Come Away, Death (Shakespeare)
DR13 -2.32 dB -21.45 dB 2:11 12-Korngold - O Mistress Mine (Shakespeare)
DR13 -2.50 dB -19.51 dB 0:51 13-Korngold - Adieu, Good Man Devil (Shakespeare)
DR13 -7.41 dB -23.89 dB 0:51 14-Korngold - Hey, Robin! (Shakespeare)
DR12 -2.20 dB -19.39 dB 3:14 15-Korngold - For the Rain, It Raineth Every Day (Shakespeare)
DR15 -3.57 dB -23.63 dB 2:05 16-Mahler - Frühlingsmorgen (Leander)
DR13 -0.45 dB -21.98 dB 2:21 17-Mahler - Erinnerung (Leander)
DR17 -0.01 dB -23.06 dB 2:13 18-Mahler - Hans und Grete (Mahler)
DR12 -4.37 dB -21.38 dB 1:35 19-Mahler - Serenade ('Don Juan' von Tirso de Molina)
DR13 -6.39 dB -26.43 dB 2:09 20-Mahler - Phantasie ('Don Juan' von Tirso de Molina)
DR14 -3.82 dB -23.32 dB 2:01 21-Mahler - Um schlimme Kinder artig zu machen (Des Knaben Wunderhorn)
DR13 -9.09 dB -27.95 dB 4:23 22-Mahler - Ich ging mit Lust (Des Knaben Wunderhorn)
DR15 -5.74 dB -24.05 dB 2:02 23-Mahler - Aus! Aus! (Des Knaben Wunderhorn)
DR14 -6.54 dB -24.71 dB 1:12 24-Mahler - Starke Einbildungskraft (Des Knaben Wunderhorn)
DR14 -3.89 dB -23.33 dB 3:48 25-Mahler - Zu Straßburg auf der Schanz' (Des Knaben Wunderhorn)
DR13 -5.32 dB -23.41 dB 1:40 26-Mahler - Ablösung im Sommer (Des Knaben Wunderhorn)
DR13 -2.65 dB -21.44 dB 2:21 27-Mahler - Scheiden und Meiden (Des Knaben Wunderhorn)
DR15 -2.62 dB -23.39 dB 4:18 28-Mahler - Nicht wiedersehen! (Des Knaben Wunderhorn)
DR15 -2.60 dB -22.31 dB 1:44 29-Mahler - Selbstgefühl (Des Knaben Wunderhorn)
––––––––––––––––––––––––––––––––––––––––

Number of tracks: 29
Official DR value: DR14

Samplerate: 44100 Hz
Channels: 2
Bits per sample: 16
Bitrate: 526 kbps
Codec: FLAC
================================================================================



CD Info:

Gustav & Alma Mahler / Erich Wolfgang Korngold - Lieder

Angelika Kirschschlager / Helmut Deutsch, piano

Label: Sony Classical
Catalog#: SK 68344
Format: CD, Album
Country: Germany
Released: 1996
Genre: Classical
Style: Romantic, Early 20th Century, Vocal, Lied

Tracklist:

1 Korngold - Glückwunsch op. 38/1 (Dehmel) 2:17
2 Korngold - Der Kranke op. 38/2 (Eichendorff) 2:19
3 Korngold - Alt-spanisch op. 38/3 1:24
4 Korngold - Old English Song op. 38/4 1:01
5 Korngold - My Mistress' Eyes op. 38/5 (Shakespeare) 2:06
6 Mahler-Werfel - Die stille Stadt (Dehmel) 2:58
7 Mahler-Werfel - In meines Vater Garten (Hartleben) 4:57
8 Mahler-Werfel - Laue Sommernacht (Bierbaum) 1:51
9 Mahler-Werfel - Bei dir ist es traut(Rilke) 1:55
10 Mahler-Werfel - Ich wandle unter Blumen (Heine) 1:10
11 Korngold - Come Away, Death (Shakespeare) 2:06
12 Korngold - O Mistress Mine (Shakespeare) 2:11
13 Korngold - Adieu, Good Man Devil (Shakespeare) 0:51
14 Korngold - Hey, Robin! (Shakespeare) 0:51
15 Korngold - For the Rain, It Raineth Every Day (Shakespeare) 3:14
16 Mahler - Frühlingsmorgen (Leander) 2:05
17 Mahler - Erinnerung (Leander) 2:21
18 Mahler - Hans und Grete (Mahler) 2:13
19 Mahler - Serenade ('Don Juan' von Tirso de Molina) 1:35
20 Mahler - Phantasie ('Don Juan' von Tirso de Molina) 2:09
21 Mahler - Um schlimme Kinder artig zu machen (Des Knaben Wunderhorn) 2:01
22 Mahler - Ich ging mit Lust (Des Knaben Wunderhorn) 4:23
23 Mahler - Aus! Aus! (Des Knaben Wunderhorn) 2:02
24 Mahler - Starke Einbildungskraft (Des Knaben Wunderhorn) 1:12
25 Mahler - Zu Straßburg auf der Schanz' (Des Knaben Wunderhorn) 3:48
26 Mahler - Ablösung im Sommer (Des Knaben Wunderhorn) 1:40
27 Mahler - Scheiden und Meiden (Des Knaben Wunderhorn) 2:21
28 Mahler - Nicht wiedersehen! (Des Knaben Wunderhorn) 4:18
29 Mahler - Selbstgefühl (Des Knaben Wunderhorn) 1:44

Recorded at Haydn-Saal, Schloß Esterhazy, Eisenstadt, Austria, May 12-16, 1996

American Record Guide (11-12/97, p.153) - "…[The Korngold] songs are quite wonderful, and we listeners should be grateful for Kirchschlager's persuasive advocacy….Pianist Helmut Deutsch is several notches above most accompanists, with his consideration of the soloist and his expressive nuances…"

Angelika Kirschschlager - Gustav & Alma Mahler / Erich Wolfgang Korngold: Lieder (1996)


all of my uploads in my blog
________________

Download:

Music
| |
Artwork

________________