Subcategories

Korn - Greatest Hits, Vol.1

Posted By: amitnewyork
Korn - Greatest Hits, Vol.1

Korn - Greatest Hits, Vol.1
Metal | 2004 | Sony BMG | 75 min | 19 tracks | dBpoweramp Secure Rip | Tracks + Log + ID Tags
FLAC | Level 8 | 592 MB | MP3 | 320 kbps CBR | 162 MB | HQ Scans | 4.8 MB


Track List:
1. "Word Up!" (Cameo) – 2:53
2. "Another Brick in the Wall" (Parts 1, 2 & 3) (Pink Floyd) – 7:08
3. "Y'All Want a Single" (Take a Look in the Mirror) – 3:18
4. "Right Now" (Take a Look in the Mirror) – 3:15
5. "Did My Time" (Take a Look in the Mirror) – 4:07
6. "Alone I Break" (Untouchables) – 4:16
7. "Here to Stay" (Untouchables) – 4:32
8. "Trash" (Issues) – 3:27
9. "Somebody Someone" (Issues) – 3:47
10. "Make Me Bad" (Issues) – 3:55
11. "Falling Away from Me" (Issues) – 4:31
12. "Got the Life" (Follow the Leader) – 3:48
13. "Freak on a Leash" (Follow the Leader) – 4:15
14. "Twist" (Life Is Peachy) – 0:50
15. "A.D.I.D.A.S." (Life Is Peachy) – 2:32
16. "Clown" (Korn) – 4:36
17. "Shoots and Ladders" (Korn) – 5:23
18. "Blind" (Korn) – 4:18
19. "Freak on a Leash" (Dante Ross Remix) – 4:45


Commercial Success / Popularity:
The album opened at #4 on the Billboard 200 and achieved platinum certification by RIAA. As of February 2009, it has sold 1,554,567 total copies in the US and over 1,850,000 copies worldwide.

Awards / Nominations:
None.

AMG Review:
by Jason Birchmeier
A decade after changing the metal landscape drastically with their self-titled debut juggernaut, Korn got the best-of treatment just as their standing began to seem increasingly shaky, commercially at least. Greatest Hits, Vol. 1 sadly isn't the disc it ideally could be, but it nonetheless summarizes how steady Korn were over the years, developing their sound oh so slightly from one album to the next and, in the process, coming up with several unquestionably killer songs every go-round. The band's six full-lengths resulted in enough of those killer songs to fill this best-of to the brim; in fact, there are quite a few more that could have been compiled here if there were more space on this single-disc release (a double disc would have been definitive). As it stands, however, practically every song here is a highlight in and of itself, with the sole exceptions of the below-par "Alone I Break" and a pair of album-opening covers: Cameo's "Word Up!" and Pink Floyd's "Another Brick in the Wall, Pts. 1-3." These newly recorded covers are here undoubtedly to bait the legions of Korn fans who already own all the band's albums but are loyal enough to purchase this best-of as a way to hear these songs. And yes, they're quite curious, so much so that you'll want to give them a listen if you're a fan (download them, though – they're curious, no doubt, but certainly not worth the price of this disc alone). The band's "Word Up!" cover is awesome, and the Pink Floyd cover is overwrought, yet enticingly so. Then again, these two songs are so well known that you have to wonder, what's the point? Like Korn's previous cover of Metallica's "One," though, the point seems to be one of curiosity rather than one-upmanship.

In any event, these covers aren't the best way to start off this best-of – not at all – nor is the reverse chronological sequencing ideal. Because Korn developed their sound over the years, even if only slightly, it'd have been better to map out that progressive trajectory here, rather than hear the band regress from the elaborate, theatrical bombast of their later albums to the stripped-down naked rawness of their fierce debut. These quibbles aside, it's worthy stating again that nothing but great songs are featured here. If you're new to Korn, the most influential and successful metal band of the '90s, this disc should blow you away – that is, assuming you're a fan of extreme music with a dark, disturbing edge. But if indeed you're new to Korn, you'd be better off skipping over this best-of and heading straight for their self-titled debut (their one undisputed classic), and then moving chronologically forward through the band's catalog. Each album stands well on its own, albeit some better than others, and here you're only getting the tip of each iceberg. If money is a concern, however, and you can only afford one Korn disc for your collection, don't think twice about picking up Greatest Hits. You won't be disappointed. No chance of that. Plus, there's a bonus DVD here of Korn's 2003 show at CBGB's that will give you a good taste of what the band is like live.

dBpoweramp Release 12.4 Digital Audio Extraction Log from Friday, March 21, 2008 8:38 PM

Drive & Settings
––––––––

Ripping with drive 'D: [HL-DT-ST - DVD-ROM GDR8164B]', Drive offset: 102, Overread Lead-in/out: No
AccurateRip: Active, Using C2: No, Cache: None, FUA Cache Invalidate: No
Pass 1 Drive Speed: Max, Pass 2 Drive Speed: Max
Ultra:: Vary Drive Speed: No, Min Passes: 2, Max Passes: 10, Finish After Clean Passes: 2
Bad Sector Re-rip:: Drive Speed: Max, Maximum Re-reads: 34

Encoder: Windows Media Audio 10 -codec="Windows Media Audio 9.2 Lossless" -settings="VBR Quality 100, 44 kHz, 2 channel 24 bit VBR" -vbr

Extraction Log
–––––––

Track 1: Ripped LBA 0 to 12999 (2:53) in 0:57. Filename: L:\Korn\2004 10 05 - Greatest Hits, Vol. 1 Disc 1\Korn - Greatest Hits, Vol. 1 Disc 1 - 01 - Word Up!.wma
AccurateRip: Inaccurate (confidence 77) Secure (Warning) [Pass 1 & 2, Ultra 1 to 2, Re-Rip 1 Frames]
CRC32: E7ADABDD

Track 2: Ripped LBA 12999 to 45224 (7:09) in 2:11. Filename: L:\Korn\2004 10 05 - Greatest Hits, Vol. 1 Disc 1\Korn - Greatest Hits, Vol. 1 Disc 1 - 02 - Another Brick in the Wall, Pts. 1, 2 & 3.wma
AccurateRip: Inaccurate (confidence 77) Secure [Pass 1 & 2, Ultra 1 to 2]
CRC32: 6D9AA62A

Track 3: Ripped LBA 45224 to 60260 (3:20) in 1:01. Filename: L:\Korn\2004 10 05 - Greatest Hits, Vol. 1 Disc 1\Korn - Greatest Hits, Vol. 1 Disc 1 - 03 - Y'All Want a Single.wma
AccurateRip: Inaccurate (confidence 76) Secure [Pass 1 & 2, Ultra 1 to 2]
CRC32: CB3D829F

Track 4: Ripped LBA 60260 to 74760 (3:13) in 1:01. Filename: L:\Korn\2004 10 05 - Greatest Hits, Vol. 1 Disc 1\Korn - Greatest Hits, Vol. 1 Disc 1 - 04 - Right Now.wma
AccurateRip: Inaccurate (confidence 75) Secure [Pass 1 & 2, Ultra 1 to 2]
CRC32: 8659B231

Track 5: Ripped LBA 74760 to 93352 (4:07) in 1:16. Filename: L:\Korn\2004 10 05 - Greatest Hits, Vol. 1 Disc 1\Korn - Greatest Hits, Vol. 1 Disc 1 - 05 - Did My Time.wma
AccurateRip: Inaccurate (confidence 77) Secure [Pass 1 & 2, Ultra 1 to 2]
CRC32: 2C97A7EC

Track 6: Ripped LBA 93352 to 112676 (4:17) in 1:19. Filename: L:\Korn\2004 10 05 - Greatest Hits, Vol. 1 Disc 1\Korn - Greatest Hits, Vol. 1 Disc 1 - 06 - Alone I Break.wma
AccurateRip: Inaccurate (confidence 76) Secure [Pass 1 & 2, Ultra 1 to 2]
CRC32: A0AFF45C

Track 7: Ripped LBA 112676 to 133062 (4:31) in 1:23. Filename: L:\Korn\2004 10 05 - Greatest Hits, Vol. 1 Disc 1\Korn - Greatest Hits, Vol. 1 Disc 1 - 07 - Here to Stay.wma
AccurateRip: Inaccurate (confidence 77) Secure [Pass 1 & 2, Ultra 1 to 2]
CRC32: 8670750C

Track 8: Ripped LBA 133062 to 148676 (3:28) in 1:20. Filename: L:\Korn\2004 10 05 - Greatest Hits, Vol. 1 Disc 1\Korn - Greatest Hits, Vol. 1 Disc 1 - 08 - Trash.wma
AccurateRip: Inaccurate (confidence 77) Secure (Warning) [Pass 1 & 2, Ultra 1 to 3, Re-Rip 1 Frames]
CRC32: B9151881

Track 9: Ripped LBA 148676 to 166000 (3:50) in 1:14. Filename: L:\Korn\2004 10 05 - Greatest Hits, Vol. 1 Disc 1\Korn - Greatest Hits, Vol. 1 Disc 1 - 09 - Somebody Someone.wma
AccurateRip: Inaccurate (confidence 77) Secure (Warning) [Pass 1 & 2, Ultra 1 to 2, Re-Rip 1 Frames]
CRC32: AABC7D8B

Track 10: Ripped LBA 166000 to 183753 (3:56) in 1:12. Filename: L:\Korn\2004 10 05 - Greatest Hits, Vol. 1 Disc 1\Korn - Greatest Hits, Vol. 1 Disc 1 - 10 - Make Me Bad.wma
AccurateRip: Inaccurate (confidence 77) Secure [Pass 1 & 2, Ultra 1 to 2]
CRC32: 69A4F544

Track 11: Ripped LBA 183753 to 204136 (4:31) in 1:23. Filename: L:\Korn\2004 10 05 - Greatest Hits, Vol. 1 Disc 1\Korn - Greatest Hits, Vol. 1 Disc 1 - 11 - Falling Away from Me.wma
AccurateRip: Inaccurate (confidence 77) Secure [Pass 1 & 2, Ultra 1 to 2]
CRC32: C4162384

Track 12: Ripped LBA 204136 to 221272 (3:48) in 1:10. Filename: L:\Korn\2004 10 05 - Greatest Hits, Vol. 1 Disc 1\Korn - Greatest Hits, Vol. 1 Disc 1 - 12 - Got the Life.wma
AccurateRip: Inaccurate (confidence 77) Secure [Pass 1 & 2, Ultra 1 to 2]
CRC32: 9BF457A9

Track 13: Ripped LBA 221272 to 240615 (4:17) in 1:19. Filename: L:\Korn\2004 10 05 - Greatest Hits, Vol. 1 Disc 1\Korn - Greatest Hits, Vol. 1 Disc 1 - 13 - Freak on a Leash.wma
AccurateRip: Inaccurate (confidence 78) Secure [Pass 1 & 2, Ultra 1 to 2]
CRC32: F3D60F52

Track 14: Ripped LBA 240615 to 244436 (0:50) in 0:15. Filename: L:\Korn\2004 10 05 - Greatest Hits, Vol. 1 Disc 1\Korn - Greatest Hits, Vol. 1 Disc 1 - 14 - Twist.wma
AccurateRip: Inaccurate (confidence 77) Secure [Pass 1 & 2, Ultra 1 to 2]
CRC32: CDA89A08

Track 15: Ripped LBA 244436 to 256079 (2:35) in 0:48. Filename: L:\Korn\2004 10 05 - Greatest Hits, Vol. 1 Disc 1\Korn - Greatest Hits, Vol. 1 Disc 1 - 15 - A.D.I.D.A.S..wma
AccurateRip: Inaccurate (confidence 79) Secure (Warning) [Pass 1 & 2, Ultra 1 to 2, Re-Rip 1 Frames]
CRC32: 9344BB37

Track 16: Ripped LBA 256079 to 276945 (4:38) in 1:25. Filename: L:\Korn\2004 10 05 - Greatest Hits, Vol. 1 Disc 1\Korn - Greatest Hits, Vol. 1 Disc 1 - 16 - Clown.wma
AccurateRip: Inaccurate (confidence 78) Secure [Pass 1 & 2, Ultra 1 to 2]
CRC32: 6627F912

Track 17: Ripped LBA 276945 to 301209 (5:23) in 1:40. Filename: L:\Korn\2004 10 05 - Greatest Hits, Vol. 1 Disc 1\Korn - Greatest Hits, Vol. 1 Disc 1 - 17 - Shoots and Ladders.wma
AccurateRip: Inaccurate (confidence 78) Secure [Pass 1 & 2, Ultra 1 to 2]
CRC32: 0C75DD1C

Track 18: Ripped LBA 301209 to 320783 (4:20) in 1:20. Filename: L:\Korn\2004 10 05 - Greatest Hits, Vol. 1 Disc 1\Korn - Greatest Hits, Vol. 1 Disc 1 - 18 - Blind.wma
AccurateRip: Inaccurate (confidence 78) Secure [Pass 1 & 2, Ultra 1 to 2]
CRC32: 49A48B9E

Track 19: Ripped LBA 320783 to 342341 (4:47) in 1:29. Filename: L:\Korn\2004 10 05 - Greatest Hits, Vol. 1 Disc 1\Korn - Greatest Hits, Vol. 1 Disc 1 - 19 - Freak on a Leash.wma
AccurateRip: Inaccurate (confidence 77) Secure [Pass 1 & 2, Ultra 1 to 2]
CRC32: A80C26B5

–––––––

19 Tracks Ripped: 15 Secure, 4 Secure (Warning)


Korn - Greatest Hits, Vol.1

Download Your Music

FLAC: http://secured.in/download-321919-0a9d8e3a.html

MP3: http://secured.in/download-321898-cfd918ba.html

SCANS: http://secured.in/download-321897-f77ced0a.html

No Password