Subcategories

Lee Morgan - Candy (1957)(Blue Note USA Pressing)(CDP 746508 2)

Posted By: janwal46
Lee Morgan - Candy (1957)(Blue Note USA Pressing)(CDP 746508 2)

Lee Morgan - Candy (1957)(Blue Note USA Pressing)(CDP 746508 2)

Lee Morgan - Candy (1957)(Blue Note USA Pressing)(CDP 746508 2)

Lee Morgan - Candy (1957)(Blue Note USA Pressing)(CDP 746508 2)
1957 | Jazz | EAC RIP | FLAC+CUE+LOG+HQ-Covers(400Dpi) | 253Mb+10Mb

Of all Lee Morgan's many albums, I think this is one of his best - it at least is the one I like most. It's the only album Morgan made where he's the only horn; he's joined by Sonny Clark (p) Doug Watkins (b) and Art Taylor (d). Tune selection is excellent: the title track and Jimmy Heath's C.T.A. really swing, as does ALL AT ONCE YOU LOVE HER, which contains excellent solo work by Lee. Clark is in fine form. Everything just clicked perfectly on this outing, and it ended up being a great date for everyone. Hard bop at its finest and an excellent example of the "simple" but exquisite one step (less is more) recording technique of Rudy Van Gelder. When you listen to this album you should realize that this superb sounding recording was made more than 50 years ago !!!! Shake hands with Lee…..he's standing in the left corner of your listening room, blowing your head off !!!!

Personnel:

Lee Morgan - Trumpet
Sonny Clark - Piano
Doug Watkins - Bass
Art Taylor – Drums

Tracklist:

01 - Candy
02 - Since I Fell For You
03 - C.T.A.
04 - All The Way
05 - Who Do You Love
06 - Personality
07 - All At Once You Love Her

Recorded by Rudy Van Gelder on November 18, 1957

Exact Audio Copy V0.99 prebeta 4 from 23. January 2008

EAC extraction logfile from 13. June 2009, 10:35

Lee Morgan / Candy

Used drive : _NEC DVD_RW ND-3520A Adapter: 1 ID: 1

Read mode : Secure
Utilize accurate stream : Yes
Defeat audio cache : No
Make use of C2 pointers : No

Read offset correction : 48
Overread into Lead-In and Lead-Out : No
Fill up missing offset samples with silence : Yes
Delete leading and trailing silent blocks : No
Null samples used in CRC calculations : No
Used interface : Native Win32 interface for Win NT & 2000

Used output format : Internal WAV Routines
Sample format : 44.100 Hz; 16 Bit; Stereo


TOC of the extracted CD

Track | Start | Length | Start sector | End sector
––––––––––––––––––––––––––––-
1 | 0:00.00 | 7:05.53 | 0 | 31927
2 | 7:05.53 | 5:38.22 | 31928 | 57299
3 | 12:44.00 | 5:06.40 | 57300 | 80289
4 | 17:50.40 | 7:25.25 | 80290 | 113689
5 | 25:15.65 | 5:01.53 | 113690 | 136317
6 | 30:17.43 | 6:13.65 | 136318 | 164357
7 | 36:31.33 | 5:26.17 | 164358 | 188824


Range status and errors

Selected range

Filename G:\AVAXHOME\Lee Morgan - Candy (1957)\Lee Morgan - Candy.wav

Peak level 90.9 %
Range quality 100.0 %
Copy CRC A063BC74
Copy OK

No errors occurred


AccurateRip summary

Track 1 accurately ripped (confidence 2) [BB336B2D]
Track 2 accurately ripped (confidence 2) [CDB91DFA]
Track 3 accurately ripped (confidence 2) [4A527DCA]
Track 4 accurately ripped (confidence 2) [1AEBFFAC]
Track 5 accurately ripped (confidence 2) [03B71538]
Track 6 accurately ripped (confidence 2) [0F4E4488]
Track 7 not present in database

6 track(s) accurately ripped
1 track(s) not present in the AccurateRip database

Some tracks could not be verified as accurate

End of status report

RIPPED BY JANWAL46

RS Links: