Subcategories

Dr. Prof. Leonard King - Extending The Language (2005) {Uuquipleu Records 21485} (featuring James Carter & Gerard Gibbs}

Posted By: ruskaval
Dr. Prof. Leonard King - Extending The Language (2005) {Uuquipleu Records 21485} (featuring James Carter & Gerard Gibbs}

Dr. Prof. Leonard King - Extending The Language (2005) {Uuquipleu Records 21485} (featuring James Carter & Gerard Gibbs}
EAC rip (secure mode) | FLAC (tracks)+CUE+LOG -> 415 Mb | MP3 @320 -> 148 Mb
Full Artwork @ 300 dpi (jpg) -> 9 Mb | 5% repair rar
© 2005 Uuquipleu Records / Strata Nova Prod. Inc. | 21485
Jazz / Groove / Jazz Blues / Jazz Funk / Drums / Organ / Saxophone

An eclectic mix of American, African, and Caribbean music with strong rhythmic aspects. This CD has the ability to make the listener jump, dance, and listen, depending on what mood the individual is in while cruising the grooves.

Leonard King was born in Detroit, Michigan where he has been able to absorb the multi-cultural musics of the entire metro area. He has performed with many artists such as Donald Byrd, Johnnie Taylor, Al Green, Herb Ellis, Barbara Dane, Eddie Kendricks, Pigmeat Markham, James Carter, and many others.

He's a drummer/vocalist/arranger who is totally interested in learning music without adhering to the limitations of genre confinement. Currently he tours the world with saxophonist James Carter and is a member of the Southpaw Isle Steel Band, in addition to fronting his own groups such as Oopapada, and the Visger Road Drum Band.

"Extending The Language" happened in a very natural way. Organist Gerard Gibbs and drummer Dr. Prof. Leonard King are members of the James Carter Organ Trio which tours the world regularly. King's original idea was to create a CD with just the organ/drums combination. Afterwards, he decided to ask James Carter to be a guest on two of the selections. Since those three members are actually a working band, once the grooves started poppin' then the first plan became instantly passe. Get ready for some high energy indescribables!!

Musicians
Dr. Prof. Leonard King - drums
Gerard Gibbs - organ
James Carter - tenor and baritone saxophones

Track Listing

01 Walking The Dog (Drummer's Style) 03:06
02 Open Hit, Baby 24:48
03 Groove Re Mi 13:26
04 It's A Long Way Down 06:33
05 Walking The Dog (Group Style) 14:43

Recording Date 1/3/2005 (James Carter's birthday)
Thrilla Park Recording Laboratory
Clawson, Mich.


Exact Audio Copy V1.0 beta 3 from 29. August 2011

EAC extraction logfile from 29. August 2014, 7:59

Leonard King / Extending The Language

Used drive : SONY DVD RW DRU-810A Adapter: 1 ID: 0

Read mode : Secure
Utilize accurate stream : Yes
Defeat audio cache : Yes
Make use of C2 pointers : No

Read offset correction : 618
Overread into Lead-In and Lead-Out : No
Fill up missing offset samples with silence : Yes
Delete leading and trailing silent blocks : No
Null samples used in CRC calculations : Yes
Used interface : Native Win32 interface for Win NT & 2000
Gap handling : Appended to previous track

Used output format : User Defined Encoder
Selected bitrate : 128 kBit/s
Quality : High
Add ID3 tag : No
Command line compressor : C:\Program Files (x86)\Exact Audio Copy\Flac\flac.exe
Additional command line options : -8 -V -T "ARTIST=%artist%" -T "TITLE=%title%" -T "ALBUM=%albumtitle%" -T "DATE=%year%" -T "TRACKNUMBER=%tracknr%" -T "TOTALTRACKS=%numtracks%" -T "GENRE=%genre%" -T "ALBUMARTIST=%albumartist%" -T "ALBUM ARTIST=%albumartist%" -T "COMMENT=EAC Secure Mode, Test & Copy, AccurateRip, FLAC -8" %source%


TOC of the extracted CD

Track | Start | Length | Start sector | End sector
––––––––––––––––––––––––––––-
1 | 0:00.00 | 3:06.54 | 0 | 14003
2 | 3:06.54 | 24:48.73 | 14004 | 125676
3 | 27:55.52 | 13:26.50 | 125677 | 186176
4 | 41:22.27 | 6:33.08 | 186177 | 215659
5 | 47:55.35 | 14:43.29 | 215660 | 281913


Track 1

Filename F:\New Rips\Leonard King - Extending The Language (2005) [FLAC]\01 - Walking The Dog–Drummer's Style.wav

Pre-gap length 0:00:02.00

Peak level 100.0 %
Extraction speed 4.6 X
Track quality 100.0 %
Test CRC 1D23CD75
Copy CRC 1D23CD75
Accurately ripped (confidence 1) [332E1565] (AR v2)
Copy OK

Track 2

Filename F:\New Rips\Leonard King - Extending The Language (2005) [FLAC]\02 - Open Hit Baby - BBQ Style.wav

Peak level 100.0 %
Extraction speed 6.7 X
Track quality 99.9 %
Test CRC 14506E73
Copy CRC 14506E73
Accurately ripped (confidence 1) [4F0F087B] (AR v2)
Copy OK

Track 3

Filename F:\New Rips\Leonard King - Extending The Language (2005) [FLAC]\03 - Groove Re Mi.wav

Peak level 44.6 %
Extraction speed 8.4 X
Track quality 100.0 %
Test CRC 46A169EC
Copy CRC 46A169EC
Accurately ripped (confidence 1) [9CE92A5E] (AR v2)
Copy OK

Track 4

Filename F:\New Rips\Leonard King - Extending The Language (2005) [FLAC]\04 - Its A Long Way Down.wav

Peak level 100.0 %
Extraction speed 8.5 X
Track quality 100.0 %
Test CRC 7A6687A1
Copy CRC 7A6687A1
Accurately ripped (confidence 1) [484F55BA] (AR v2)
Copy OK

Track 5

Filename F:\New Rips\Leonard King - Extending The Language (2005) [FLAC]\05 - Walking The Dog–Group Style.wav

Peak level 100.0 %
Extraction speed 9.7 X
Track quality 100.0 %
Test CRC 0CF4AA57
Copy CRC 0CF4AA57
Accurately ripped (confidence 1) [C9E1A545] (AR v2)
Copy OK


All tracks accurately ripped

No errors occurred

End of status report

–– CUETools DB Plugin V2.1.3

[CTDB TOCID: JhvRfXctreCsW2dBxO4Mh33FumA-] found, Submit result: JhvRfXctreCsW2dBxO4Mh33FumA- has been confirmed
[4a2315ce] (1/1) Accurately ripped


==== Log checksum E4A9DA9824DE37E51FF96EC520416A6233BAF0055D006E339B707B69F10033EC ====


Dr. Prof. Leonard King - Extending The Language (2005) {Uuquipleu Records 21485} (featuring James Carter & Gerard Gibbs}

Dr. Prof. Leonard King - Extending The Language (2005) {Uuquipleu Records 21485} (featuring James Carter & Gerard Gibbs}



===