Subcategories

Link Wray - The Rumble Man (2017) {CD+DVD, Not Now Music NOT2CD656 rec 1996}

Posted By: ruskaval
Link Wray - The Rumble Man (2017) {CD+DVD, Not Now Music NOT2CD656 rec 1996}

Link Wray - The Rumble Man (2017) {CD+DVD, Not Now Music NOT2CD656 rec 1996}
EAC rip (secure mode) | FLAC (tracks)+CUE+LOG -> 481 Mb | MP3 @320 -> 171 Mb
DVD5 -> 4.22 Gb | All Regions | NTSC 4:3 | LPCM, 2 ch | ~ 111 min | ISO Image
Full Artwork @ 300 dpi (png) -> 61 Mb | 5% repair rar
© 1996, 2017 Not Now Music | NOT2CD656
Rock / Rock and Roll / Instrumental Rock / Rockabilly / Garage Rock

The Rumble Man was recorded and filmed during Link Wray's UK tour of March ’96, the CD features Link rockin' his leathers off live, while the DVD is a mix of live footage and documentary, featuring an extensive interview with the man himself. What you now hold in your hand is a piece of Rock 'n' Roll history. In his own words and music you are about to witness the greatest guitar player this planet has ever seen. So sit back, hit that volume control to distortion and listen to The Rumble Man.
Link Wray - The Rumble Man (2017) {CD+DVD, Not Now Music NOT2CD656 rec 1996}


Track Listing

CD

1. Rumble
2. Jack The Ripper
3. Ace Of Spades
4. King Creole
5. Mr. Guitar
6. Tiger Man
7. Batman
8. I Can’t Help It If I’m Still In Love With You
9. Sweeper
10. You’re So Young And Beautiful
11. Rumble
12. Rawhide
13. Run Chicken Run
14. Deuces Wild

BONUS TRACKS:
15. Walking Down A Street Called Love
16. Jailhouse Rock
17. Born To Be Wild
18. Fire
19. MEDLEY: Mystery Train / My Babe /That’s Alright Mama / I Got A Woman
20. I Didn’t Cheat On You

Link Wray - The Rumble Man (2017) {CD+DVD, Not Now Music NOT2CD656 rec 1996}


DVD
1. Rumble
2. Jack The Ripper
3. Ace Of Spades
4. King Creole
5. Mr. Guitar
6. Tiger Man
7. Batman
8. I Can’t Help It If I’m Still In Love With You
9. Sweeper
10. You’re So Young And Beautiful
11. Rumble
12. Rawhide
13. Run Chicken Run
14. Deuces Wild

BONUS TRACKS:
15. Walking Down A Street Called Love
16. Jailhouse Rock
17. Born To Be Wild
18. Fire
19. I Didn’t Cheat On You
20. MEDLEY: Mystery Train / My Babe /That’s Alright Mama / I Got A Woman

Link Wray - The Rumble Man (2017) {CD+DVD, Not Now Music NOT2CD656 rec 1996}


Exact Audio Copy V1.3 from 2. September 2016

EAC extraction logfile from 10. November 2017, 19:43

Link Wray / The Rumble Man

Used drive : ASUS BW-12D1S-U Adapter: 1 ID: 0

Read mode : Secure
Utilize accurate stream : Yes
Defeat audio cache : Yes
Make use of C2 pointers : No

Read offset correction : 667
Overread into Lead-In and Lead-Out : No
Fill up missing offset samples with silence : Yes
Delete leading and trailing silent blocks : No
Null samples used in CRC calculations : Yes
Used interface : Native Win32 interface for Win NT & 2000
Gap handling : Appended to previous track

Used output format : User Defined Encoder
Selected bitrate : 1024 kBit/s
Quality : High
Add ID3 tag : No
Command line compressor : C:\Program Files (x86)\Music Codec\Flac 1.3.2\win64\flac.exe
Additional command line options : -8 -V -T "ARTIST=%artist%" -T "TITLE=%title%" -T "ALBUM=%albumtitle%" -T "DATE=%year%" -T "TRACKNUMBER=%tracknr%" -T "TOTALTRACKS=%numtracks%" -T "GENRE=%genre%" -T "ALBUMARTIST=%albumartist%" -T "ALBUM ARTIST=%albumartist%" -T "COMMENT=EAC Secure Mode, Test & Copy, AccurateRip, FLAC -8" %source%


TOC of the extracted CD

Track | Start | Length | Start sector | End sector
––––––––––––––––––––––––––––-
1 | 0:00.00 | 1:31.43 | 0 | 6867
2 | 1:31.43 | 2:38.72 | 6868 | 18789
3 | 4:10.40 | 2:02.55 | 18790 | 27994
4 | 6:13.20 | 2:05.61 | 27995 | 37430
5 | 8:19.06 | 1:59.16 | 37431 | 46371
6 | 10:18.22 | 3:13.12 | 46372 | 60858
7 | 13:31.34 | 2:13.06 | 60859 | 70839
8 | 15:44.40 | 4:49.22 | 70840 | 92536
9 | 20:33.62 | 3:06.13 | 92537 | 106499
10 | 23:40.00 | 2:46.26 | 106500 | 118975
11 | 26:26.26 | 3:24.40 | 118976 | 134315
12 | 29:50.66 | 3:05.15 | 134316 | 148205
13 | 32:56.06 | 2:38.19 | 148206 | 160074
14 | 35:34.25 | 6:29.08 | 160075 | 189257
15 | 42:03.33 | 3:47.33 | 189258 | 206315
16 | 45:50.66 | 3:49.25 | 206316 | 223515
17 | 49:40.16 | 5:41.32 | 223516 | 249122
18 | 55:21.48 | 7:31.31 | 249123 | 282978
19 | 62:53.04 | 5:44.00 | 282979 | 308778
20 | 68:37.04 | 4:14.52 | 308779 | 327880


Track 1

Filename D:\3. my rip in preparation\Other\APDS\01 - Rumble.wav

Pre-gap length 0:00:02.00

Peak level 98.3 %
Extraction speed 3.8 X
Track quality 100.0 %
Test CRC BC858612
Copy CRC BC858612
Accurately ripped (confidence 1) [9BF11B0E] (AR v2)
Copy OK

Track 2

Filename D:\3. my rip in preparation\Other\APDS\02 - Jack the Ripper.wav

Pre-gap length 0:00:01.77

Peak level 98.4 %
Extraction speed 4.6 X
Track quality 100.0 %
Test CRC 5A77C623
Copy CRC 5A77C623
Accurately ripped (confidence 1) [D40F952E] (AR v2)
Copy OK

Track 3

Filename D:\3. my rip in preparation\Other\APDS\03 - Ace of Spades.wav

Peak level 98.5 %
Extraction speed 4.5 X
Track quality 100.0 %
Test CRC 2A5DA075
Copy CRC 2A5DA075
Accurately ripped (confidence 1) [23F26086] (AR v2)
Copy OK

Track 4

Filename D:\3. my rip in preparation\Other\APDS\04 - King Creole.wav

Pre-gap length 0:00:01.77

Peak level 98.4 %
Extraction speed 3.9 X
Track quality 99.9 %
Test CRC DC73D1FE
Copy CRC DC73D1FE
Accurately ripped (confidence 1) [E26282B4] (AR v2)
Copy OK

Track 5

Filename D:\3. my rip in preparation\Other\APDS\05 - Mr. Guitar.wav

Pre-gap length 0:00:01.77

Peak level 98.6 %
Extraction speed 4.0 X
Track quality 99.9 %
Test CRC D6827744
Copy CRC D6827744
Accurately ripped (confidence 1) [08649B61] (AR v2)
Copy OK

Track 6

Filename D:\3. my rip in preparation\Other\APDS\06 - Tiger Man.wav

Pre-gap length 0:00:01.77

Peak level 98.3 %
Extraction speed 5.6 X
Track quality 100.0 %
Test CRC 4439D0AB
Copy CRC 4439D0AB
Accurately ripped (confidence 1) [420C8303] (AR v2)
Copy OK

Track 7

Filename D:\3. my rip in preparation\Other\APDS\07 - Batman.wav

Pre-gap length 0:00:01.77

Peak level 98.5 %
Extraction speed 5.5 X
Track quality 100.0 %
Test CRC 5FE4C189
Copy CRC 5FE4C189
Accurately ripped (confidence 1) [E02F1A72] (AR v2)
Copy OK

Track 8

Filename D:\3. my rip in preparation\Other\APDS\08 - I Can't Help It I'm Still in Love With You.wav

Pre-gap length 0:00:01.74

Peak level 98.2 %
Extraction speed 6.5 X
Track quality 100.0 %
Test CRC 28DFC42B
Copy CRC 28DFC42B
Accurately ripped (confidence 1) [5157E3F0] (AR v2)
Copy OK

Track 9

Filename D:\3. my rip in preparation\Other\APDS\09 - Sweeper.wav

Peak level 98.8 %
Extraction speed 6.5 X
Track quality 100.0 %
Test CRC FCEB797C
Copy CRC FCEB797C
Accurately ripped (confidence 1) [4686AE07] (AR v2)
Copy OK

Track 10

Filename D:\3. my rip in preparation\Other\APDS\10 - You're So Young and Beautiful.wav

Pre-gap length 0:00:01.77

Peak level 88.9 %
Extraction speed 5.5 X
Track quality 99.9 %
Test CRC 3BFB6AFB
Copy CRC 3BFB6AFB
Accurately ripped (confidence 1) [75FB6FBA] (AR v2)
Copy OK

Track 11

Filename D:\3. my rip in preparation\Other\APDS\11 - Rumble.wav

Peak level 98.5 %
Extraction speed 6.1 X
Track quality 99.9 %
Test CRC A6A82F01
Copy CRC A6A82F01
Accurately ripped (confidence 1) [A6C4F38E] (AR v2)
Copy OK

Track 12

Filename D:\3. my rip in preparation\Other\APDS\12 - Rawhide.wav

Peak level 98.4 %
Extraction speed 7.0 X
Track quality 100.0 %
Test CRC 9C74D23D
Copy CRC 9C74D23D
Accurately ripped (confidence 1) [2C5D407B] (AR v2)
Copy OK

Track 13

Filename D:\3. my rip in preparation\Other\APDS\13 - Run Chicken Run.wav

Peak level 98.4 %
Extraction speed 7.0 X
Track quality 100.0 %
Test CRC FD0AFECC
Copy CRC FD0AFECC
Accurately ripped (confidence 1) [C2F2C305] (AR v2)
Copy OK

Track 14

Filename D:\3. my rip in preparation\Other\APDS\14 - Deuces Wild.wav

Peak level 98.4 %
Extraction speed 7.5 X
Track quality 99.9 %
Test CRC 0852A5F2
Copy CRC 0852A5F2
Accurately ripped (confidence 1) [63E9704A] (AR v2)
Copy OK

Track 15

Filename D:\3. my rip in preparation\Other\APDS\15 - Walking Down a Street Called Love.wav

Pre-gap length 0:00:01.77

Peak level 98.3 %
Extraction speed 6.8 X
Track quality 100.0 %
Test CRC 4351653A
Copy CRC 4351653A
Accurately ripped (confidence 1) [BE0A9732] (AR v2)
Copy OK

Track 16

Filename D:\3. my rip in preparation\Other\APDS\16 - Jailhouse Rock.wav

Peak level 98.5 %
Extraction speed 8.1 X
Track quality 100.0 %
Test CRC 2079CAF6
Copy CRC 2079CAF6
Accurately ripped (confidence 1) [3ADD9161] (AR v2)
Copy OK

Track 17

Filename D:\3. my rip in preparation\Other\APDS\17 - Born to Be Wild.wav

Pre-gap length 0:00:01.76

Peak level 98.3 %
Extraction speed 8.8 X
Track quality 100.0 %
Test CRC 1DD7610C
Copy CRC 1DD7610C
Accurately ripped (confidence 1) [8853CB5C] (AR v2)
Copy OK

Track 18

Filename D:\3. my rip in preparation\Other\APDS\18 - Fire.wav

Pre-gap length 0:00:01.77

Peak level 98.4 %
Extraction speed 9.3 X
Track quality 100.0 %
Test CRC 063FFF75
Copy CRC 063FFF75
Accurately ripped (confidence 1) [683A18B0] (AR v2)
Copy OK

Track 19

Filename D:\3. my rip in preparation\Other\APDS\19 - Mystery Train - My Babe - That's Alright Mama - I Got a Woman (medley).wav

Peak level 98.3 %
Extraction speed 9.4 X
Track quality 100.0 %
Test CRC 68072A10
Copy CRC 68072A10
Accurately ripped (confidence 1) [FC807D9B] (AR v2)
Copy OK

Track 20

Filename D:\3. my rip in preparation\Other\APDS\20 - I Didn't Cheat on You.wav

Peak level 97.7 %
Extraction speed 9.2 X
Track quality 100.0 %
Test CRC ACD50517
Copy CRC ACD50517
Accurately ripped (confidence 1) [1CE95F88] (AR v2)
Copy OK


All tracks accurately ripped

No errors occurred

End of status report

–– CUETools DB Plugin V2.1.6

[CTDB TOCID: eDentrW5p1nJI3eSywqPRxTsqWE-] disk not present in database
Submit result: eDentrW5p1nJI3eSywqPRxTsqWE- has been uploaded


==== Log checksum 6F46F6444B1FE380C7A48C85E03F33FE8835B72EA85B2330133A2D271795C74C ====

I 19:45:22 DVD Decrypter Version 3.5.4.0 started!
I 19:45:22 Professional (6.2, Build 9200)
I 19:45:22 Initialising SPTI…
I 19:45:22 Searching for SCSI / ATAPI devices…
I 19:45:22 Found 2 DVD-RAM/±RWs!
W 19:45:41 Possible Structure Protection Found!
W 19:45:41 1 area has been marked as 'suspect'.
W 19:45:41 Dummy sectors will be inserted where necessary.
I 19:46:21 Operation Started!
I 19:46:21 Source Device: [0:0:0] ASUS BW-12D1S-U E401 (F:) (USB)
I 19:46:21 Source Media Type: DVD-ROM
I 19:46:21 Source Media Region Code: 1; 2; 3; 4; 5; 6; 7; 8
I 19:46:21 Source Media Copyright Protection System Type: None
I 19:46:21 Source Media Implementation Identifier: Minerva
I 19:46:21 Destination File: D:\3. my rip in preparation\Other\APDS\Image\The Rumble Man (DVD).ISO
I 19:46:22 File Splitting: None
I 19:46:22 Hardware Read Error Retries: 20
I 19:46:22 Remove Structure Protection: No
I 19:46:22 Bad Sector Removal Method: Normal
I 19:46:22 Detect Mastering Errors: No
I 19:46:22 Remove Macrovision Protection: Yes
I 19:46:22 Extracting Sectors… (LBA: 0 - 2275407)
I 19:46:22 Found IFO File: VIDEO_TS.IFO - (LBA: 280 - 282)
I 19:46:22 Found VOB File: VIDEO_TS.VOB - (LBA: 283 - 297) - KEY: N/A
I 19:46:22 Found BUP File: VIDEO_TS.BUP - (LBA: 298 - 300)
I 19:46:22 Found IFO File: VTS_01_0.IFO - (LBA: 301 - 349)
I 19:46:22 Found VOB File: VTS_01_0.VOB - (LBA: 350 - 2435) - KEY: N/A
I 19:46:24 Found VOB File: VTS_01_1.VOB - (LBA: 2436 - 463332) - KEY: N/A
I 19:47:57 Found VOB File: VTS_01_2.VOB - (LBA: 463333 - 924179) - KEY: N/A
I 19:49:03 Found VOB File: VTS_01_3.VOB - (LBA: 924180 - 1385067) - KEY: N/A
I 19:49:58 Found VOB File: VTS_01_4.VOB - (LBA: 1385068 - 1845965) - KEY: N/A
I 19:50:47 Found VOB File: VTS_01_5.VOB - (LBA: 1845966 - 2275351) - KEY: N/A
I 19:51:29 Found BUP File: VTS_01_0.BUP - (LBA: 2275352 - 2275400)
I 19:51:34 Operation Successfully Completed! - Duration: 00:05:13
I 19:51:34 Average Read Rate: 14.539 KB/s (10.5x) - Maximum Read Rate: 21.602 KB/s (15.6x)


Link Wray - The Rumble Man (2017) {CD+DVD, Not Now Music NOT2CD656 rec 1996}

Link Wray - The Rumble Man (2017) {CD+DVD, Not Now Music NOT2CD656 rec 1996}

Link Wray - The Rumble Man (2017) {CD+DVD, Not Now Music NOT2CD656 rec 1996}

Link Wray - The Rumble Man (2017) {CD+DVD, Not Now Music NOT2CD656 rec 1996}

Link Wray - The Rumble Man (2017) {CD+DVD, Not Now Music NOT2CD656 rec 1996}

Link Wray - The Rumble Man (2017) {CD+DVD, Not Now Music NOT2CD656 rec 1996}



===