Subcategories

Carlo Ambrogio Lonati (c.1645–c.1712) - Complete Sinfonias - Ensemble Giardino di Delizie (2019) {2CD Brilliant Classics 95590}

Posted By: ruskaval
Carlo Ambrogio Lonati (c.1645–c.1712) - Complete Sinfonias - Ensemble Giardino di Delizie (2019) {2CD Brilliant Classics 95590}

Carlo Ambrogio Lonati (c.1645–c.1712) - Complete Sinfonias - Ensemble Giardino di Delizie (2019) {2CD Brilliant Classics 95590}
EAC rip (secure mode) | FLAC (tracks)+CUE+LOG -> 560 Mb | MP3 @320 -> 212 Mb
Full Artwork @ 300 dpi (jpg) -> 27 Mb | 5% repair rar
© 2019 Brilliant Classics | 95590
Classical / Baroque

Another long-forgotten name takes his place in the huge library of Baroque composers published by Brilliant Classics thanks to spirited advocacy from a lively young Roman early-music group.

The Milanese composer, impresario and singer Carlo Ambrogio Lonati (c.1645 – c.1712) made his name farther south, in Naples, as a singer and instrumentalist at the Royal Chapel. Some impression of his appearance may be inferred from the nickname widely bestowed upon him as ‘Il gobbo della regina’ (‘the queen’s hunchback’) during his period of service in the city to the expatriate Queen Christina of Sweden. Working in Rome and Genoa in close partnership with his fellow composer Alessandro Stradella, Lonati left Genoa in a hurry after the unexplained fatal stabbing of his friend in February 1682.

Titled as sinfonias on the manuscript, this collection of 10 trio sonatas probably dates from Lonati’s Roman period, which means they were written before 1677, when he left the city. By no means generic in character, each of them searches for a new and personal stylistic identity within the conventions of the form. The first movements vary considerably in form and duration, often highlighting one or other of the instruments in concertante prominence. Lonati’s flair as a performer transfers readily to his writing: this is music of sparkling temperament, highly polished expression and often formidably challenging technique. In his treatise Il trionfo della pratica musicale, Francesco Maria Veracini, one of the great Italian violinists of the 18th century, described Lonati as the ‘foremost light among violinists’. This recording puts the most eloquent case for his claim.

Founded in 2014 by the violinist Ewa Anna Augustynowicz, Ensemble Giardino di Delizie is a quartet of early-music experts based in Rome but working internationally, not only with each other but also within groups led by Christophe Coin, Enrico Onofri, Fabio Bondi and other luminaries of modern Baroque performance. This album marks the ensemble’s debut on Brilliant Classics.

Although Carlo Ambrogio Lonati (1645-1712) was born in Naples he spent the best part of his life in Rome, where he was called “The Queen’s hunchback”, as he was appointed at the Roman court of the Queen of Sweden.
Lonati wrote a great number of vocal works, however it was his instrumental music which distinguished him. He himself was a professional singer as well as a violinist. His violin sonatas and trio sonatas are the most important works in this genre before Corelli.
This new recording presents the 10 Trio Sonatas, or Sinfonias, written for one or two violins, cello and harpsichord/organ. The skillful counterpoint and the brilliant virtuosity provide the instruments with every possibility to shine and dazzle in dialogue with each other.
The ensemble Giardino di Delizie is a Roman female Baroque group, researching and performing forgotten treasures from the Italian and Polish Baroque. They played in such ensembles as Europa Galante, Les Eléments, Quatuor Mosaiques and others.
The excellent liner notes are in English and Italian.

brilliantclassics.com INFO

Personnel
Ensemble Giardino di Delizie
Ewa Anna Augustynowicz
artistic director


Track list
Disk 1


1
Sinfonia a 3 in C Major
2
Sinfonia a 3 in G Minor
3
Sinfonia a 3 in A Minor
4
Sinfonia a 3 in D Major
5
Sinfonia a 3 in G Minor

Disk 2

1
Sinfonia a 3 in G Minor
2
Sinfonia a 3 in A Major
3
Sinfonia a 3 in A Minor
4
Sinfonia a 3 in C Major
5
Sinfonia a 3 in D Major

Exact Audio Copy V1.3 from 2. September 2016

EAC extraction logfile from 15. May 2019, 16:29

Ensemble Giardino di Delizie / Lonati - Complete Sinfonias [CD1]

Used drive : HL-DT-STDVDRAM GP57EB40 Adapter: 1 ID: 1

Read mode : Secure
Utilize accurate stream : Yes
Defeat audio cache : Yes
Make use of C2 pointers : No

Read offset correction : 6
Overread into Lead-In and Lead-Out : No
Fill up missing offset samples with silence : Yes
Delete leading and trailing silent blocks : No
Null samples used in CRC calculations : Yes
Used interface : Native Win32 interface for Win NT & 2000
Gap handling : Appended to previous track

Used output format : User Defined Encoder
Selected bitrate : 768 kBit/s
Quality : High
Add ID3 tag : No
Command line compressor : C:\Program Files (x86)\Exact Audio Copy\FLAC\FLAC.EXE
Additional command line options : -6 -V -T "ARTIST=%artist%" -T "TITLE=%title%" -T "ALBUM=%albumtitle%" -T "DATE=%year%" -T "TRACKNUMBER=%tracknr%" -T "GENRE=%genre%" -T "COMMENT=%comment%" -T "BAND=%albuminterpret%" -T "ALBUMARTIST=%albuminterpret%" -T "COMPOSER=%composer%" %haslyrics%–tag-from-file=LYRICS="%lyricsfile%"%haslyrics% -T "DISCNUMBER=%cdnumber%" -T "TOTALDISCS=%totalcds%" -T "TOTALTRACKS=%numtracks%" %hascover%–picture="%coverfile%"%hascover% %source% -o %dest%


TOC of the extracted CD

Track | Start | Length | Start sector | End sector
––––––––––––––––––––––––––––-
1 | 0:00.00 | 8:45.47 | 0 | 39421
2 | 8:45.47 | 10:07.10 | 39422 | 84956
3 | 18:52.57 | 7:14.66 | 84957 | 117572
4 | 26:07.48 | 12:34.61 | 117573 | 174183
5 | 38:42.34 | 9:05.18 | 174184 | 215076


Track 1

Filename C:\DP\01 Sinfonia a 3 in C major.wav

Pre-gap length 0:00:02.00

Peak level 97.7 %
Extraction speed 1.3 X
Track quality 100.0 %
Test CRC 82275FA9
Copy CRC 82275FA9
Track not present in AccurateRip database
Copy OK

Track 2

Filename C:\DP\02 Sinfonia a 3 in g minor.wav

Pre-gap length 0:00:02.00

Peak level 97.7 %
Extraction speed 1.6 X
Track quality 100.0 %
Test CRC C3552EB5
Copy CRC C3552EB5
Track not present in AccurateRip database
Copy OK

Track 3

Filename C:\DP\03 Sinfonia a 3 in a minor.wav

Pre-gap length 0:00:02.00

Peak level 97.7 %
Extraction speed 1.6 X
Track quality 99.9 %
Test CRC 777B87E5
Copy CRC 777B87E5
Track not present in AccurateRip database
Copy OK

Track 4

Filename C:\DP\04 Sinfonia a 3 in D major.wav

Pre-gap length 0:00:02.00

Peak level 97.7 %
Extraction speed 2.0 X
Track quality 100.0 %
Test CRC C23F016C
Copy CRC C23F016C
Track not present in AccurateRip database
Copy OK

Track 5

Filename C:\DP\05 Sinfonia a 3 in g minor.wav

Pre-gap length 0:00:02.00

Peak level 97.7 %
Extraction speed 2.2 X
Track quality 100.0 %
Test CRC D25D0E66
Copy CRC D25D0E66
Track not present in AccurateRip database
Copy OK


None of the tracks are present in the AccurateRip database

No errors occurred

End of status report

–– CUETools DB Plugin V2.1.6

[CTDB TOCID: Kx3CdJ04HtqX009AeyPGh_nD9DA-] found
Submit result: Kx3CdJ04HtqX009AeyPGh_nD9DA- has been confirmed
Track | CTDB Status
1 | (1/1) Accurately ripped
2 | (1/1) Accurately ripped
3 | (1/1) Accurately ripped
4 | (1/1) Accurately ripped
5 | (1/1) Accurately ripped


==== Log checksum 43BB97C7BA26158E6906491A4B22DBF62851FE6977084B1F1D2431CB27746774 ====
Exact Audio Copy V1.3 from 2. September 2016

EAC extraction logfile from 15. May 2019, 19:14

Ensemble Giardino di Delizie / Lonati - Complete Sinfonias [CD2]

Used drive : HL-DT-STDVDRAM GP57EB40 Adapter: 1 ID: 1

Read mode : Secure
Utilize accurate stream : Yes
Defeat audio cache : Yes
Make use of C2 pointers : No

Read offset correction : 6
Overread into Lead-In and Lead-Out : No
Fill up missing offset samples with silence : Yes
Delete leading and trailing silent blocks : No
Null samples used in CRC calculations : Yes
Used interface : Native Win32 interface for Win NT & 2000
Gap handling : Appended to previous track

Used output format : User Defined Encoder
Selected bitrate : 768 kBit/s
Quality : High
Add ID3 tag : No
Command line compressor : C:\Program Files (x86)\Exact Audio Copy\FLAC\FLAC.EXE
Additional command line options : -6 -V -T "ARTIST=%artist%" -T "TITLE=%title%" -T "ALBUM=%albumtitle%" -T "DATE=%year%" -T "TRACKNUMBER=%tracknr%" -T "GENRE=%genre%" -T "COMMENT=%comment%" -T "BAND=%albuminterpret%" -T "ALBUMARTIST=%albuminterpret%" -T "COMPOSER=%composer%" %haslyrics%–tag-from-file=LYRICS="%lyricsfile%"%haslyrics% -T "DISCNUMBER=%cdnumber%" -T "TOTALDISCS=%totalcds%" -T "TOTALTRACKS=%numtracks%" %hascover%–picture="%coverfile%"%hascover% %source% -o %dest%


TOC of the extracted CD

Track | Start | Length | Start sector | End sector
––––––––––––––––––––––––––––-
1 | 0:00.00 | 6:51.16 | 0 | 30840
2 | 6:51.16 | 7:25.22 | 30841 | 64237
3 | 14:16.38 | 8:01.09 | 64238 | 100321
4 | 22:17.47 | 9:29.05 | 100322 | 143001
5 | 31:46.52 | 8:40.16 | 143002 | 182017


Track 1

Filename C:\DP\01 Sinfonia a 3 in g minor.wav

Pre-gap length 0:00:02.00

Peak level 97.7 %
Extraction speed 1.2 X
Track quality 100.0 %
Test CRC ED7D1C54
Copy CRC ED7D1C54
Track not present in AccurateRip database
Copy OK

Track 2

Filename C:\DP\02 Sinfonia a 3 in A major.wav

Pre-gap length 0:00:02.00

Peak level 97.7 %
Extraction speed 1.4 X
Track quality 100.0 %
Test CRC 1A10656F
Copy CRC 1A10656F
Track not present in AccurateRip database
Copy OK

Track 3

Filename C:\DP\03 Sinfonia a 3 in a minor.wav

Pre-gap length 0:00:02.00

Peak level 97.7 %
Extraction speed 1.6 X
Track quality 100.0 %
Test CRC 7B64AFB8
Copy CRC 7B64AFB8
Track not present in AccurateRip database
Copy OK

Track 4

Filename C:\DP\04 Sinfonia a 3 in C major.wav

Pre-gap length 0:00:02.00

Peak level 97.7 %
Extraction speed 1.8 X
Track quality 99.9 %
Test CRC 82C47EC8
Copy CRC 82C47EC8
Track not present in AccurateRip database
Copy OK

Track 5

Filename C:\DP\05 Sinfonia a 3 in D major.wav

Pre-gap length 0:00:02.00

Peak level 97.7 %
Extraction speed 1.9 X
Track quality 99.9 %
Test CRC 9896B564
Copy CRC 9896B564
Track not present in AccurateRip database
Copy OK


None of the tracks are present in the AccurateRip database

No errors occurred

End of status report

–– CUETools DB Plugin V2.1.6

[CTDB TOCID: _.3Rv.X8OxLvBp9dubnZquDHEA0-] found
Submit result: _.3Rv.X8OxLvBp9dubnZquDHEA0- has been confirmed
Track | CTDB Status
1 | (1/1) Accurately ripped
2 | (1/1) Accurately ripped
3 | (1/1) Accurately ripped
4 | (1/1) Accurately ripped
5 | (1/1) Accurately ripped


==== Log checksum 58A56A85507E31B44C4AB83F88BEC2F4D7455D7AC06BDB2FFCB68DED19C4D47D ====


Carlo Ambrogio Lonati (c.1645–c.1712) - Complete Sinfonias - Ensemble Giardino di Delizie (2019) {2CD Brilliant Classics 95590}

Carlo Ambrogio Lonati (c.1645–c.1712) - Complete Sinfonias - Ensemble Giardino di Delizie (2019) {2CD Brilliant Classics 95590}



===