Tags
Language
Tags

Lou Reed - 9 Album Collection (1972-76) [9CD] {2006 Japan Mini LP Remaster} - Repost

Posted By: Hungry Mind
Lou Reed - 9 Album Collection (1972-76) [9CD] {2006 Japan Mini LP Remaster} - Repost

Lou Reed - 9 Album Collection (1972-76) [9CD] {2006 Japan Mini LP Remaster}
EAC Rip | FLAC (tracks+.cue+log) - 2,84 GB | Scans | MP3 CBR 320 kbps (LAME 3.98) - 980 MB
Genre: rock | RAR 5% Rec. | Label: RCA / BMG Japan | CAT # BVCM-37725~33 | Mini LP 2006

Nearly 30 years after it came out, Lou Reed's solo debut suggests that neither Reed nor his new record company were quite sure about what to do with him in 1972. It would be years before the cult of the Velvet Underground became big enough to mean anything commercially, leaving Lou pretty much back where he started from in the public eye after five years of hard work, and he seemed to be searching for a different musical direction on this set without quite deciding what it would be; while the best tunes are admirably lean, no-frills rock & roll, there are also several featuring tricked-up arrangements that don't suit the material terribly well (at no other time in history would anyone believe that Steve Howe and Rick Wakeman would be a good choice as backing musicians for the guy who wrote "Sister Ray").

Lou Reed - 9 Album Collection (1972-76) [9CD] {2006 Japan Mini LP Remaster} - Repost

Lou Reed - Lou Reed (1972)
EAC Rip | FLAC (tracks+.cue+log) - 235 MB | Scans | MP3 CBR 320 kbps (LAME 3.98) - 93 MB
Genre: rock | RAR 5% Rec. | Label: RCA / BMG Japan | CAT # BVCM-37725 | Mini LP 2006

Lou also didn't appear to have done much songwriting since he left the Velvets in 1970; with the exception of the hilariously catty "Wild Child" and "Berlin," a song Reed would revisit a few years later, nearly every significant song on Lou Reed dated back to his tenure with the Velvet Underground, though it would be years before that band's recordings of "I Can't Stand It," "Lisa Says," or "Ocean" would surface. On its own terms, Lou Reed isn't a bad album, but it isn't a terribly interesting one either, and since superior performances of most of these songs are available elsewhere, it stands today more as a historical curiosity than anything else.
TRACKLIST
01. I Can't Stand It
02. Going Down
03. Walk And Talk It
04. Lisa Says
05. Berlin
06. I Love You
07. Wild Child
08. Love Makes You Feel
09. Ride Into The Sun
10. Ocean

EAC extraction logfile from 11. October 2007, 10:18 for CD
Lou Reed / Lou Reed

Used drive : HL-DT-STDVD-RAM GSA-H22L Adapter: 1 ID: 0
Read mode : Secure with NO C2, accurate stream, disable cache
Read offset correction : 102
Overread into Lead-In and Lead-Out : No

Used output format : C:\Program Files\FLAC\flac.exe (User Defined Encoder)
128 kBit/s
Additional command line options : -5 -V -T "ARTIST=%a" -T "TITLE=%t" -T "ALBUM=%g" -T "DATE=%y" -T "TRACKNUMBER=%n" -T "GENRE=%m" -T "COMMENT=EAC Flac 1.2.0 -5" %s

Other options :
Fill up missing offset samples with silence : Yes
Delete leading and trailing silent blocks : No
Installed external ASPI interface


Track 1
Filename C:\EAC\Lou Reed - Berlin (2006) [FLAC] (9 Disc Boxset Japan Mini LP 2006 Remasters)\Lou Reed - Lou Reed (1972) [FLAC] (Japan Mini LP 2006 Remaster)\01 - I Can't Stand It.wav

Pre-gap length 0:00:02.00

Peak level 100.0 %
Track quality 100.0 %
Test CRC F709D0ED
Copy CRC F709D0ED
Copy OK

Track 2
Filename C:\EAC\Lou Reed - Berlin (2006) [FLAC] (9 Disc Boxset Japan Mini LP 2006 Remasters)\Lou Reed - Lou Reed (1972) [FLAC] (Japan Mini LP 2006 Remaster)\02 - Going Down.wav

Pre-gap length 0:00:03.82

Peak level 100.0 %
Track quality 100.0 %
Test CRC 7E06C0C3
Copy CRC 7E06C0C3
Copy OK

Track 3
Filename C:\EAC\Lou Reed - Berlin (2006) [FLAC] (9 Disc Boxset Japan Mini LP 2006 Remasters)\Lou Reed - Lou Reed (1972) [FLAC] (Japan Mini LP 2006 Remaster)\03 - Walk And Talk It.wav

Pre-gap length 0:00:03.76

Peak level 100.0 %
Track quality 100.0 %
Test CRC ABC43F2F
Copy CRC ABC43F2F
Copy OK

Track 4
Filename C:\EAC\Lou Reed - Berlin (2006) [FLAC] (9 Disc Boxset Japan Mini LP 2006 Remasters)\Lou Reed - Lou Reed (1972) [FLAC] (Japan Mini LP 2006 Remaster)\04 - Lisa Says.wav

Pre-gap length 0:00:03.66

Peak level 100.0 %
Track quality 99.9 %
Test CRC F69E25FF
Copy CRC F69E25FF
Copy OK

Track 5
Filename C:\EAC\Lou Reed - Berlin (2006) [FLAC] (9 Disc Boxset Japan Mini LP 2006 Remasters)\Lou Reed - Lou Reed (1972) [FLAC] (Japan Mini LP 2006 Remaster)\05 - Berlin.wav

Peak level 100.0 %
Track quality 100.0 %
Test CRC DDA2565F
Copy CRC DDA2565F
Copy OK

Track 6
Filename C:\EAC\Lou Reed - Berlin (2006) [FLAC] (9 Disc Boxset Japan Mini LP 2006 Remasters)\Lou Reed - Lou Reed (1972) [FLAC] (Japan Mini LP 2006 Remaster)\06 - I Love You.wav

Pre-gap length 0:00:03.73

Peak level 100.0 %
Track quality 100.0 %
Test CRC 8B98BBFB
Copy CRC 8B98BBFB
Copy OK

Track 7
Filename C:\EAC\Lou Reed - Berlin (2006) [FLAC] (9 Disc Boxset Japan Mini LP 2006 Remasters)\Lou Reed - Lou Reed (1972) [FLAC] (Japan Mini LP 2006 Remaster)\07 - Wild Child.wav

Pre-gap length 0:00:04.25

Peak level 100.0 %
Track quality 100.0 %
Test CRC B9A2CA90
Copy CRC B9A2CA90
Copy OK

Track 8
Filename C:\EAC\Lou Reed - Berlin (2006) [FLAC] (9 Disc Boxset Japan Mini LP 2006 Remasters)\Lou Reed - Lou Reed (1972) [FLAC] (Japan Mini LP 2006 Remaster)\08 - Love Makes You Feel.wav

Pre-gap length 0:00:03.82

Peak level 100.0 %
Track quality 99.9 %
Test CRC F8F48FE5
Copy CRC F8F48FE5
Copy OK

Track 9
Filename C:\EAC\Lou Reed - Berlin (2006) [FLAC] (9 Disc Boxset Japan Mini LP 2006 Remasters)\Lou Reed - Lou Reed (1972) [FLAC] (Japan Mini LP 2006 Remaster)\09 - Ride Into The Sun.wav

Pre-gap length 0:00:04.02

Peak level 100.0 %
Track quality 100.0 %
Test CRC A990361D
Copy CRC A990361D
Copy OK

Track 10
Filename C:\EAC\Lou Reed - Berlin (2006) [FLAC] (9 Disc Boxset Japan Mini LP 2006 Remasters)\Lou Reed - Lou Reed (1972) [FLAC] (Japan Mini LP 2006 Remaster)\10 - Ocean.wav

Pre-gap length 0:00:03.46

Peak level 100.0 %
Track quality 100.0 %
Test CRC 586406DF
Copy CRC 586406DF
Copy OK

No errors occured


End of status report


Lou Reed - 9 Album Collection (1972-76) [9CD] {2006 Japan Mini LP Remaster} - Repost


––––––––––––––––––––

Lou Reed - 9 Album Collection (1972-76) [9CD] {2006 Japan Mini LP Remaster} - Repost

Lou Reed - Transformer (1972)
EAC Rip | FLAC (tracks+.cue+log) - 313 MB | Scans | MP3 CBR 320 kbps (LAME 3.98) - 142 MB
Genre: rock | RAR 5% Rec. | Label: RCA / BMG Japan | CAT # BVCM-37726 | Mini LP 2006

David Bowie has never been shy about acknowledging his influences, and since the boho decadence and sexual ambiguity of the Velvet Underground's music had a major impact on Bowie's work, it was only fitting that as Ziggy Stardust mania was reaching its peak, Bowie would offer Lou Reed some much needed help with his career, which was stuck in neutral after his first solo album came and went. Musically, Reed's work didn't have too much in common with the sonic bombast of the glam scene, but at least it was a place where his eccentricities could find a comfortable home, and on Transformer Bowie and his right-hand man, Mick Ronson, crafted a new sound for Reed that was better fitting (and more commercially astute) than the ambivalent tone of his first solo album. Ronson adds some guitar raunch to "Vicious" and "Hangin' Round" that's a lot flashier than what Reed cranked out with the Velvets, but still honors Lou's strengths in guitar-driven hard rock, while the imaginative arrangements Ronson cooked up for "Perfect Day," "Walk on the Wild Side," and "Goodnight Ladies" blend pop polish with musical thinking just as distinctive as Reed's lyrical conceits. And while Reed occasionally overplays his hand in writing stuff he figured the glam kids wanted ("Make Up" and "I'm So Free" being the most obvious examples), "Perfect Day," "Walk on the Wild Side," and "New York Telephone Conversation" proved he could still write about the demimonde with both perception and respect. The sound and style of Transformer would in many ways define Reed's career in the 1970s, and while it led him into a style that proved to be a dead end, you can't deny that Bowie and Ronson gave their hero a new lease on life – and a solid album in the bargain.
TRACKLIST
01. Vicious
02. Andy's Chest
03. Perfect Day
04. Hangin' Round
05. Walk On The Wild Side
06. Make Up
07. Satellite Of Love
08. Wagon Wheel
09. New York Telephone Conversation
10. I'm So Free
11. Goodnight Ladies
12. Hangin' Round (Acoustic Demo)
13. Perfect Day (Acoustic Demo)

EAC extraction logfile from 9. October 2007, 17:49 for CD
Lou Reed / Transformer

Used drive : HL-DT-STDVD-RAM GSA-H22L Adapter: 1 ID: 0
Read mode : Secure with NO C2, accurate stream, disable cache
Read offset correction : 102
Overread into Lead-In and Lead-Out : No

Used output format : C:\Program Files\FLAC\flac.exe (User Defined Encoder)
128 kBit/s
Additional command line options : -5 -V -T "ARTIST=%a" -T "TITLE=%t" -T "ALBUM=%g" -T "DATE=%y" -T "TRACKNUMBER=%n" -T "GENRE=%m" -T "COMMENT=EAC Flac 1.2.0 -5" %s

Other options :
Fill up missing offset samples with silence : Yes
Delete leading and trailing silent blocks : No
Installed external ASPI interface


Track 1
Filename C:\EAC\Lou Reed - Berlin (2006) [FLAC] (9 Disc Boxset Japan Mini LP 2006 Remasters)\Lou Reed - Transformer (1972) [FLAC] (Japan Mini LP 2006 Remaster)\01 - Vicious.wav

Pre-gap length 0:00:02.00

Peak level 100.0 %
Track quality 100.0 %
Test CRC 1D9DABB8
Copy CRC 1D9DABB8
Copy OK

Track 2
Filename C:\EAC\Lou Reed - Berlin (2006) [FLAC] (9 Disc Boxset Japan Mini LP 2006 Remasters)\Lou Reed - Transformer (1972) [FLAC] (Japan Mini LP 2006 Remaster)\02 - Andy's Chest.wav

Pre-gap length 0:00:02.22

Peak level 100.0 %
Track quality 99.9 %
Test CRC 221910C5
Copy CRC 221910C5
Copy OK

Track 3
Filename C:\EAC\Lou Reed - Berlin (2006) [FLAC] (9 Disc Boxset Japan Mini LP 2006 Remasters)\Lou Reed - Transformer (1972) [FLAC] (Japan Mini LP 2006 Remaster)\03 - Perfect Day.wav

Pre-gap length 0:00:01.92

Peak level 100.0 %
Track quality 100.0 %
Test CRC E269A03F
Copy CRC E269A03F
Copy OK

Track 4
Filename C:\EAC\Lou Reed - Berlin (2006) [FLAC] (9 Disc Boxset Japan Mini LP 2006 Remasters)\Lou Reed - Transformer (1972) [FLAC] (Japan Mini LP 2006 Remaster)\04 - Hangin' Round.wav

Pre-gap length 0:00:01.62

Peak level 100.0 %
Track quality 100.0 %
Test CRC 5490F3F7
Copy CRC 5490F3F7
Copy OK

Track 5
Filename C:\EAC\Lou Reed - Berlin (2006) [FLAC] (9 Disc Boxset Japan Mini LP 2006 Remasters)\Lou Reed - Transformer (1972) [FLAC] (Japan Mini LP 2006 Remaster)\05 - Walk On The Wild Side.wav

Pre-gap length 0:00:01.85

Peak level 100.0 %
Track quality 100.0 %
Test CRC AE111D71
Copy CRC AE111D71
Copy OK

Track 6
Filename C:\EAC\Lou Reed - Berlin (2006) [FLAC] (9 Disc Boxset Japan Mini LP 2006 Remasters)\Lou Reed - Transformer (1972) [FLAC] (Japan Mini LP 2006 Remaster)\06 - Make Up.wav

Pre-gap length 0:00:01.62

Peak level 100.0 %
Track quality 100.0 %
Test CRC 0EB5056C
Copy CRC 0EB5056C
Copy OK

Track 7
Filename C:\EAC\Lou Reed - Berlin (2006) [FLAC] (9 Disc Boxset Japan Mini LP 2006 Remasters)\Lou Reed - Transformer (1972) [FLAC] (Japan Mini LP 2006 Remaster)\07 - Satellite Of Love.wav

Peak level 100.0 %
Track quality 100.0 %
Test CRC 7697CEBC
Copy CRC 7697CEBC
Copy OK

Track 8
Filename C:\EAC\Lou Reed - Berlin (2006) [FLAC] (9 Disc Boxset Japan Mini LP 2006 Remasters)\Lou Reed - Transformer (1972) [FLAC] (Japan Mini LP 2006 Remaster)\08 - Wagon Wheel.wav

Pre-gap length 0:00:02.29

Peak level 100.0 %
Track quality 100.0 %
Test CRC 89F23912
Copy CRC 89F23912
Copy OK

Track 9
Filename C:\EAC\Lou Reed - Berlin (2006) [FLAC] (9 Disc Boxset Japan Mini LP 2006 Remasters)\Lou Reed - Transformer (1972) [FLAC] (Japan Mini LP 2006 Remaster)\09 - New York Telephone Conversation.wav

Peak level 100.0 %
Track quality 100.0 %
Test CRC 8EF3DCA5
Copy CRC 8EF3DCA5
Copy OK

Track 10
Filename C:\EAC\Lou Reed - Berlin (2006) [FLAC] (9 Disc Boxset Japan Mini LP 2006 Remasters)\Lou Reed - Transformer (1972) [FLAC] (Japan Mini LP 2006 Remaster)\10 - I'm So Free.wav

Peak level 100.0 %
Track quality 100.0 %
Test CRC 63A90E32
Copy CRC 63A90E32
Copy OK

Track 11
Filename C:\EAC\Lou Reed - Berlin (2006) [FLAC] (9 Disc Boxset Japan Mini LP 2006 Remasters)\Lou Reed - Transformer (1972) [FLAC] (Japan Mini LP 2006 Remaster)\11 - Goodnight Ladies.wav

Peak level 100.0 %
Track quality 100.0 %
Test CRC 4F6F2AD5
Copy CRC 4F6F2AD5
Copy OK

Track 12
Filename C:\EAC\Lou Reed - Berlin (2006) [FLAC] (9 Disc Boxset Japan Mini LP 2006 Remasters)\Lou Reed - Transformer (1972) [FLAC] (Japan Mini LP 2006 Remaster)\12 - Hangin' Round (Acoustic Demo).wav

Pre-gap length 0:00:09.56

Peak level 100.0 %
Track quality 100.0 %
Test CRC 5BA97469
Copy CRC 5BA97469
Copy OK

Track 13
Filename C:\EAC\Lou Reed - Berlin (2006) [FLAC] (9 Disc Boxset Japan Mini LP 2006 Remasters)\Lou Reed - Transformer (1972) [FLAC] (Japan Mini LP 2006 Remaster)\13 - Perfect Day (Acoustic Demo).wav

Pre-gap length 0:00:01.56

Peak level 100.0 %
Track quality 100.0 %
Test CRC 3B3DCB13
Copy CRC 3B3DCB13
Copy OK

No errors occured


End of status report


Lou Reed - 9 Album Collection (1972-76) [9CD] {2006 Japan Mini LP Remaster} - Repost


–––––––––––––––––––––-

Lou Reed - 9 Album Collection (1972-76) [9CD] {2006 Japan Mini LP Remaster} - Repost

Lou Reed - Berlin (1973)
EAC Rip | FLAC (tracks+.cue+log) - 304 MB | Scans | MP3 CBR 320 kbps (LAME 3.98) - 120 MB
Genre: rock | RAR 5% Rec. | Label: RCA / BMG Japan | CAT # BVCM-37727 | Mini LP 2006

Transformer and "Walk on the Wild Side" were both major hits in 1972, to the surprise of both Lou Reed and the music industry, and with Reed suddenly a hot commodity, he used his newly won clout to make the most ambitious album of his career, Berlin. Berlin was the musical equivalent of a drug-addled kid set loose in a candy store; the album's songs, which form a loose story line about a doomed romance between two chemically fueled bohemians, were fleshed out with a huge, boomy production (Bob Ezrin at his most grandiose) and arrangements overloaded with guitars, keyboards, horns, strings, and any other kitchen sink that was handy (the session band included Jack Bruce, Steve Winwood, Aynsley Dunbar, and Tony Levin). And while Reed had often been accused of focusing on the dark side of life, he and Ezrin approached Berlin as their opportunity to make The Most Depressing Album of All Time, and they hardly missed a trick. This all seemed a bit much for an artist who made such superb use of the two-guitars/bass/drums lineup with the Velvet Underground, especially since Reed doesn't even play electric guitar on the album; the sheer size of Berlin ultimately overpowers both Reed and his material. But if Berlin is largely a failure of ambition, that sets it apart from the vast majority of Reed's lesser works; Lou's vocals are both precise and impassioned, and though a few of the songs are little more than sketches, the best – "How Do You Think It Feels," "Oh, Jim," "The Kids," and "Sad Song" – are powerful, bitter stuff. It's hard not to be impressed by Berlin, given the sheer scope of the project, but while it earns an A for effort, the actual execution merits more of a B-.
TRACKLIST
01. Berlin
02. Lady Day
03. Men Of Good Fortune
04. Caroline Says I
05. How Do You Think It Feels
06. Oh Jim
07. Caroline Says II
08. The Kids
09. The Bed
10. Sad Song

EAC extraction logfile from 11. October 2007, 4:39 for CD
Lou Reed / Berlin

Used drive : HL-DT-STDVD-RAM GSA-H22L Adapter: 1 ID: 0
Read mode : Secure with NO C2, accurate stream, disable cache
Read offset correction : 102
Overread into Lead-In and Lead-Out : No

Used output format : C:\Program Files\FLAC\flac.exe (User Defined Encoder)
128 kBit/s
Additional command line options : -5 -V -T "ARTIST=%a" -T "TITLE=%t" -T "ALBUM=%g" -T "DATE=%y" -T "TRACKNUMBER=%n" -T "GENRE=%m" -T "COMMENT=EAC Flac 1.2.0 -5" %s

Other options :
Fill up missing offset samples with silence : Yes
Delete leading and trailing silent blocks : No
Installed external ASPI interface


Track 1
Filename C:\EAC\Lou Reed - Berlin (2006) [FLAC] (9 Disc Boxset Japan Mini LP 2006 Remasters)\Lou Reed - Berlin (1973) [FLAC] (Japan Mini LP 2006 Remaster)\01 - Berlin.wav

Pre-gap length 0:00:02.00

Peak level 100.0 %
Track quality 100.0 %
Test CRC 55DCE283
Copy CRC 55DCE283
Copy OK

Track 2
Filename C:\EAC\Lou Reed - Berlin (2006) [FLAC] (9 Disc Boxset Japan Mini LP 2006 Remasters)\Lou Reed - Berlin (1973) [FLAC] (Japan Mini LP 2006 Remaster)\02 - Lady Day.wav

Peak level 100.0 %
Track quality 100.0 %
Test CRC B8F02ABC
Copy CRC B8F02ABC
Copy OK

Track 3
Filename C:\EAC\Lou Reed - Berlin (2006) [FLAC] (9 Disc Boxset Japan Mini LP 2006 Remasters)\Lou Reed - Berlin (1973) [FLAC] (Japan Mini LP 2006 Remaster)\03 - Men Of Good Fortune.wav

Pre-gap length 0:00:01.53

Peak level 100.0 %
Track quality 100.0 %
Test CRC 206C9484
Copy CRC 206C9484
Copy OK

Track 4
Filename C:\EAC\Lou Reed - Berlin (2006) [FLAC] (9 Disc Boxset Japan Mini LP 2006 Remasters)\Lou Reed - Berlin (1973) [FLAC] (Japan Mini LP 2006 Remaster)\04 - Caroline Says I.wav

Pre-gap length 0:00:01.94

Peak level 100.0 %
Track quality 100.0 %
Test CRC 5AB31D80
Copy CRC 5AB31D80
Copy OK

Track 5
Filename C:\EAC\Lou Reed - Berlin (2006) [FLAC] (9 Disc Boxset Japan Mini LP 2006 Remasters)\Lou Reed - Berlin (1973) [FLAC] (Japan Mini LP 2006 Remaster)\05 - How Do You Think It Feels.wav

Peak level 100.0 %
Track quality 99.9 %
Test CRC 9C14538B
Copy CRC 9C14538B
Copy OK

Track 6
Filename C:\EAC\Lou Reed - Berlin (2006) [FLAC] (9 Disc Boxset Japan Mini LP 2006 Remasters)\Lou Reed - Berlin (1973) [FLAC] (Japan Mini LP 2006 Remaster)\06 - Oh Jim.wav

Peak level 100.0 %
Track quality 100.0 %
Test CRC B9E09410
Copy CRC B9E09410
Copy OK

Track 7
Filename C:\EAC\Lou Reed - Berlin (2006) [FLAC] (9 Disc Boxset Japan Mini LP 2006 Remasters)\Lou Reed - Berlin (1973) [FLAC] (Japan Mini LP 2006 Remaster)\07 - Caroline Says II.wav

Pre-gap length 0:00:04.29

Peak level 100.0 %
Track quality 100.0 %
Test CRC 2BB50299
Copy CRC 2BB50299
Copy OK

Track 8
Filename C:\EAC\Lou Reed - Berlin (2006) [FLAC] (9 Disc Boxset Japan Mini LP 2006 Remasters)\Lou Reed - Berlin (1973) [FLAC] (Japan Mini LP 2006 Remaster)\08 - The Kids.wav

Pre-gap length 0:00:00.21

Peak level 100.0 %
Track quality 100.0 %
Test CRC 6228F0AE
Copy CRC 6228F0AE
Copy OK

Track 9
Filename C:\EAC\Lou Reed - Berlin (2006) [FLAC] (9 Disc Boxset Japan Mini LP 2006 Remasters)\Lou Reed - Berlin (1973) [FLAC] (Japan Mini LP 2006 Remaster)\09 - The Bed.wav

Pre-gap length 0:00:04.89

Peak level 95.5 %
Track quality 100.0 %
Test CRC 81A57624
Copy CRC 81A57624
Copy OK

Track 10
Filename C:\EAC\Lou Reed - Berlin (2006) [FLAC] (9 Disc Boxset Japan Mini LP 2006 Remasters)\Lou Reed - Berlin (1973) [FLAC] (Japan Mini LP 2006 Remaster)\10 - Sad Song.wav

Peak level 100.0 %
Track quality 100.0 %
Test CRC A3B898BD
Copy CRC A3B898BD
Copy OK

No errors occured


End of status report


Lou Reed - 9 Album Collection (1972-76) [9CD] {2006 Japan Mini LP Remaster} - Repost


––––––––––––––––––––––-

Lou Reed - 9 Album Collection (1972-76) [9CD] {2006 Japan Mini LP Remaster} - Repost

Lou Reed - Rock n Roll Animal (1974)
EAC Rip | FLAC (tracks+.cue+log) - 341 MB | Scans | MP3 CBR 320 kbps (LAME 3.98) - 115 MB
Genre: rock | RAR 5% Rec. | Label: RCA / BMG Japan | CAT # BVCM-37728 | Mini LP 2006

In 1974, after the commercial disaster of his album Berlin, Lou Reed needed a hit, and Rock N Roll Animal was a rare display of commercial acumen on his part, just the right album at just the right time. Recorded in concert with Reed's crack road band at the peak of their form, Rock N Roll Animal offered a set of his most anthemic songs (most dating from his days with the Velvet Underground) in arrangements that presented his lean, effective melodies and street-level lyrics in their most user-friendly form (or at least as user friendly as an album with a song called "Heroin" can get). Early-'70s arena rock bombast is often the order of the day, but guitarists Dick Wagner and Steve Hunter use their six-string muscle to lift these songs up, not weigh them down, and with Reed's passionate but controlled vocals riding over the top, "Sweet Jane," "White Light/White Heat," and "Rock 'n' Roll" finally sound like the radio hits they always should have been. Reed would rarely sound this commercial again, but Rock N Roll Animal proves he could please a crowd when he had to.
TRACKLIST
1. Intro, Sweet Jane
2. Heroin
3. How Do You Think It Feels (Previously Unreleased)
4. Caroline Says I (Previously Unreleased)
5. White Light, White Heat
6. Lady Day
7. Rock N Roll

EAC extraction logfile from 9. October 2007, 19:35 for CD
Lou Reed / Rock 'N Roll Animal

Used drive : HL-DT-STDVD-RAM GSA-H22L Adapter: 1 ID: 0
Read mode : Secure with NO C2, accurate stream, disable cache
Read offset correction : 102
Overread into Lead-In and Lead-Out : No

Used output format : C:\Program Files\FLAC\flac.exe (User Defined Encoder)
128 kBit/s
Additional command line options : -5 -V -T "ARTIST=%a" -T "TITLE=%t" -T "ALBUM=%g" -T "DATE=%y" -T "TRACKNUMBER=%n" -T "GENRE=%m" -T "COMMENT=EAC Flac 1.2.0 -5" %s

Other options :
Fill up missing offset samples with silence : Yes
Delete leading and trailing silent blocks : No
Installed external ASPI interface


Track 1
Filename C:\EAC\Lou Reed - Berlin (2006) [FLAC] (9 Disc Boxset Japan Mini LP 2006 Remasters)\Lou Reed - Rock N Roll Animal (1974) [FLAC] (Japan Mini LP 2006 Remaster)\01 - Intro, Sweet Jane.wav

Pre-gap length 0:00:02.00

Peak level 100.0 %
Track quality 100.0 %
Test CRC 0079B8B0
Copy CRC 0079B8B0
Copy OK

Track 2
Filename C:\EAC\Lou Reed - Berlin (2006) [FLAC] (9 Disc Boxset Japan Mini LP 2006 Remasters)\Lou Reed - Rock N Roll Animal (1974) [FLAC] (Japan Mini LP 2006 Remaster)\02 - Heroin.wav

Pre-gap length 0:00:09.26

Peak level 100.0 %
Track quality 100.0 %
Test CRC 13A71DD8
Copy CRC 13A71DD8
Copy OK

Track 3
Filename C:\EAC\Lou Reed - Berlin (2006) [FLAC] (9 Disc Boxset Japan Mini LP 2006 Remasters)\Lou Reed - Rock N Roll Animal (1974) [FLAC] (Japan Mini LP 2006 Remaster)\03 - How Do You Think It Feels (Previously Unreleased).wav

Pre-gap length 0:00:13.33

Peak level 100.0 %
Track quality 100.0 %
Test CRC 73456BAE
Copy CRC 73456BAE
Copy OK

Track 4
Filename C:\EAC\Lou Reed - Berlin (2006) [FLAC] (9 Disc Boxset Japan Mini LP 2006 Remasters)\Lou Reed - Rock N Roll Animal (1974) [FLAC] (Japan Mini LP 2006 Remaster)\04 - Caroline Says I (Previously Unreleased).wav

Pre-gap length 0:00:16.85

Peak level 100.0 %
Track quality 100.0 %
Test CRC 892C2F34
Copy CRC 892C2F34
Copy OK

Track 5
Filename C:\EAC\Lou Reed - Berlin (2006) [FLAC] (9 Disc Boxset Japan Mini LP 2006 Remasters)\Lou Reed - Rock N Roll Animal (1974) [FLAC] (Japan Mini LP 2006 Remaster)\05 - White Light, White Heat.wav

Pre-gap length 0:00:01.80

Peak level 100.0 %
Track quality 100.0 %
Test CRC A1808481
Copy CRC A1808481
Copy OK

Track 6
Filename C:\EAC\Lou Reed - Berlin (2006) [FLAC] (9 Disc Boxset Japan Mini LP 2006 Remasters)\Lou Reed - Rock N Roll Animal (1974) [FLAC] (Japan Mini LP 2006 Remaster)\06 - Lady Day.wav

Pre-gap length 0:00:17.96

Peak level 100.0 %
Track quality 100.0 %
Test CRC 961F8819
Copy CRC 961F8819
Copy OK

Track 7
Filename C:\EAC\Lou Reed - Berlin (2006) [FLAC] (9 Disc Boxset Japan Mini LP 2006 Remasters)\Lou Reed - Rock N Roll Animal (1974) [FLAC] (Japan Mini LP 2006 Remaster)\07 - Rock N Roll.wav

Pre-gap length 0:00:12.82

Peak level 100.0 %
Track quality 100.0 %
Test CRC 054F6422
Copy CRC 054F6422
Copy OK

No errors occured


End of status report


Lou Reed - 9 Album Collection (1972-76) [9CD] {2006 Japan Mini LP Remaster} - Repost


–––––––––––––––––––––––-

Lou Reed - 9 Album Collection (1972-76) [9CD] {2006 Japan Mini LP Remaster} - Repost

Lou Reed - Sally Can't Dance (1974)
EAC Rip | FLAC (tracks+.cue+log) - 274 MB | Scans | MP3 CBR 320 kbps (LAME 3.98) - 95 MB
Genre: rock | RAR 5% Rec. | Label: RCA / BMG Japan | CAT # BVCM-37729 | Mini LP 2006

On the live album Rock N Roll Animal, Lou Reed showed he'd learned how to give his audience what they wanted, and do it well. Sally Can't Dance, on the other hand, was the polar opposite, a remarkably cynical album that pandered to the lowest common denominator of the market that had bought Transformer and Rock N Roll Animal, and didn't even do it with much flair. Reed's performances here are limited to vocals, except for some sloppy acoustic guitar on one track (this from the man who helped reinvent electric guitar with the Velvet Underground), and the sodden, overblown arrangements sink most of these tunes before they get past the first chorus; much of the time, Reed sounds like an afterthought on his own album. And while Reed's best songwriting ranks with the best rock of his generation, Sally Can't Dance is cluttered with throwaways that reach for the boho decadence of Transformer and come up empty (with special recognition going to the bizarre and truly puzzling "Animal Language"). Side two does offer two worthwhile songs: "Kill Your Sons," a powerful and deeply personal remembrance of Reed's bouts with shock treatment and brutal psychotherapy, which he would revisit in a much stronger performance on 1984's Live in Italy, and "Billy," a witty and surprisingly poignant remembrance of an old friend and how their paths in life diverged.
TRACKLIST
01. Ride Sally Ride
02. Animal Language
03. Baby Face
04. N.Y. Stars
05. Kill Your Sons
06. Ennui
07. Sally Can't Dance
08. Billy
09. Good Taste
10. Sally Can't Dance (Single Version)

EAC extraction logfile from 11. October 2007, 0:26 for CD
Lou Reed / Sally Can't Dance

Used drive : HL-DT-STDVD-RAM GSA-H22L Adapter: 1 ID: 0
Read mode : Secure with NO C2, accurate stream, disable cache
Read offset correction : 102
Overread into Lead-In and Lead-Out : No

Used output format : C:\Program Files\FLAC\flac.exe (User Defined Encoder)
128 kBit/s
Additional command line options : -5 -V -T "ARTIST=%a" -T "TITLE=%t" -T "ALBUM=%g" -T "DATE=%y" -T "TRACKNUMBER=%n" -T "GENRE=%m" -T "COMMENT=EAC Flac 1.2.0 -5" %s

Other options :
Fill up missing offset samples with silence : Yes
Delete leading and trailing silent blocks : No
Installed external ASPI interface


Track 1
Filename C:\EAC\Lou Reed - Berlin (2006) [FLAC] (9 Disc Boxset Japan Mini LP 2006 Remasters)\Lou Reed - Sally Can't Dance (1974) [FLAC] (Japan Mini LP 2006 Remaster)\01 - Ride Sally Ride.wav

Pre-gap length 0:00:02.00

Peak level 97.1 %
Track quality 100.0 %
Test CRC 30320CE2
Copy CRC 30320CE2
Copy OK

Track 2
Filename C:\EAC\Lou Reed - Berlin (2006) [FLAC] (9 Disc Boxset Japan Mini LP 2006 Remasters)\Lou Reed - Sally Can't Dance (1974) [FLAC] (Japan Mini LP 2006 Remaster)\02 - Animal Language.wav

Pre-gap length 0:00:02.13

Peak level 98.8 %
Track quality 100.0 %
Test CRC 49FA1051
Copy CRC 49FA1051
Copy OK

Track 3
Filename C:\EAC\Lou Reed - Berlin (2006) [FLAC] (9 Disc Boxset Japan Mini LP 2006 Remasters)\Lou Reed - Sally Can't Dance (1974) [FLAC] (Japan Mini LP 2006 Remaster)\03 - Baby Face.wav

Pre-gap length 0:00:01.76

Peak level 98.8 %
Track quality 100.0 %
Test CRC D153BBAA
Copy CRC D153BBAA
Copy OK

Track 4
Filename C:\EAC\Lou Reed - Berlin (2006) [FLAC] (9 Disc Boxset Japan Mini LP 2006 Remasters)\Lou Reed - Sally Can't Dance (1974) [FLAC] (Japan Mini LP 2006 Remaster)\04 - N.Y. Stars.wav

Pre-gap length 0:00:01.69

Peak level 98.8 %
Track quality 100.0 %
Test CRC 2EAF5891
Copy CRC 2EAF5891
Copy OK

Track 5
Filename C:\EAC\Lou Reed - Berlin (2006) [FLAC] (9 Disc Boxset Japan Mini LP 2006 Remasters)\Lou Reed - Sally Can't Dance (1974) [FLAC] (Japan Mini LP 2006 Remaster)\05 - Kill Your Sons.wav

Pre-gap length 0:00:02.22

Peak level 98.8 %
Track quality 100.0 %
Test CRC B6A7E0D7
Copy CRC B6A7E0D7
Copy OK

Track 6
Filename C:\EAC\Lou Reed - Berlin (2006) [FLAC] (9 Disc Boxset Japan Mini LP 2006 Remasters)\Lou Reed - Sally Can't Dance (1974) [FLAC] (Japan Mini LP 2006 Remaster)\06 - Ennui.wav

Pre-gap length 0:00:01.42

Peak level 98.8 %
Track quality 100.0 %
Test CRC B79DCE68
Copy CRC B79DCE68
Copy OK

Track 7
Filename C:\EAC\Lou Reed - Berlin (2006) [FLAC] (9 Disc Boxset Japan Mini LP 2006 Remasters)\Lou Reed - Sally Can't Dance (1974) [FLAC] (Japan Mini LP 2006 Remaster)\07 - Sally Can't Dance.wav

Pre-gap length 0:00:01.58

Peak level 98.8 %
Track quality 99.9 %
Test CRC 4978EE40
Copy CRC 4978EE40
Copy OK

Track 8
Filename C:\EAC\Lou Reed - Berlin (2006) [FLAC] (9 Disc Boxset Japan Mini LP 2006 Remasters)\Lou Reed - Sally Can't Dance (1974) [FLAC] (Japan Mini LP 2006 Remaster)\08 - Billy.wav

Pre-gap length 0:00:01.69

Peak level 98.8 %
Track quality 100.0 %
Test CRC E738450D
Copy CRC E738450D
Copy OK

Track 9
Filename C:\EAC\Lou Reed - Berlin (2006) [FLAC] (9 Disc Boxset Japan Mini LP 2006 Remasters)\Lou Reed - Sally Can't Dance (1974) [FLAC] (Japan Mini LP 2006 Remaster)\09 - Good Taste.wav

Pre-gap length 0:00:04.21

Peak level 98.8 %
Track quality 100.0 %
Test CRC F925F5AB
Copy CRC F925F5AB
Copy OK

Track 10
Filename C:\EAC\Lou Reed - Berlin (2006) [FLAC] (9 Disc Boxset Japan Mini LP 2006 Remasters)\Lou Reed - Sally Can't Dance (1974) [FLAC] (Japan Mini LP 2006 Remaster)\10 - Sally Can't Dance (Single Version).wav

Pre-gap length 0:00:01.09

Peak level 98.8 %
Track quality 99.9 %
Test CRC 84ED3924
Copy CRC 84ED3924
Copy OK

No errors occured


End of status report


Lou Reed - 9 Album Collection (1972-76) [9CD] {2006 Japan Mini LP Remaster} - Repost


–––––––––––––––––––––––––

Lou Reed - 9 Album Collection (1972-76) [9CD] {2006 Japan Mini LP Remaster} - Repost

Lou Reed - Lou Reed Live! (1975)
EAC Rip | FLAC (tracks+.cue+log) - 294 MB | Scans | MP3 CBR 320 kbps (LAME 3.98) - 137 MB
Genre: rock | RAR 5% Rec. | Label: RCA / BMG Japan | CAT # BVCM-37730 | Mini LP 2006

Lou Reed Live is a live album by Lou Reed, released in 1975. It was recorded at the same concert as Rock 'n' Roll Animal ; on December 21, 1973, at Howard Stein's Academy of Music in New York. It features three songs from Transformer, one song from The Velvet Underground & Nico (Reed's former band's debut album) and two songs from Berlin. Between this album and the remastered Rock 'n' Roll Animal the entire show has been released, albeit in a different order than the original concert setlist.
TRACKLIST
1. Vicious
2. Sattelite Of Love
3. Walk On The Wild Side
4. I'm Waiting For The Man
5. Oh Jim
6. Sad Song

EAC extraction logfile from 9. October 2007, 20:19 for CD
Lou Reed / Lou Reed Live

Used drive : HL-DT-STDVD-RAM GSA-H22L Adapter: 1 ID: 0
Read mode : Secure with NO C2, accurate stream, disable cache
Read offset correction : 102
Overread into Lead-In and Lead-Out : No

Used output format : C:\Program Files\FLAC\flac.exe (User Defined Encoder)
128 kBit/s
Additional command line options : -5 -V -T "ARTIST=%a" -T "TITLE=%t" -T "ALBUM=%g" -T "DATE=%y" -T "TRACKNUMBER=%n" -T "GENRE=%m" -T "COMMENT=EAC Flac 1.2.0 -5" %s

Other options :
Fill up missing offset samples with silence : Yes
Delete leading and trailing silent blocks : No
Installed external ASPI interface


Track 1
Filename C:\EAC\Lou Reed - Berlin (2006) [FLAC] (9 Disc Boxset Japan Mini LP 2006 Remasters)\Lou Reed - Lou Reed Live (1975) [FLAC] (Japan Mini LP 2006 Remaster)\01 - Vicious.wav

Pre-gap length 0:00:02.00

Peak level 100.0 %
Track quality 100.0 %
Test CRC 9E9DFB0A
Copy CRC 9E9DFB0A
Copy OK

Track 2
Filename C:\EAC\Lou Reed - Berlin (2006) [FLAC] (9 Disc Boxset Japan Mini LP 2006 Remasters)\Lou Reed - Lou Reed Live (1975) [FLAC] (Japan Mini LP 2006 Remaster)\02 - Sattelite Of Love.wav

Peak level 100.0 %
Track quality 99.9 %
Test CRC E06E04F4
Copy CRC E06E04F4
Copy OK

Track 3
Filename C:\EAC\Lou Reed - Berlin (2006) [FLAC] (9 Disc Boxset Japan Mini LP 2006 Remasters)\Lou Reed - Lou Reed Live (1975) [FLAC] (Japan Mini LP 2006 Remaster)\03 - Walk On The Wild Side.wav

Peak level 100.0 %
Track quality 99.9 %
Test CRC C1C564C5
Copy CRC C1C564C5
Copy OK

Track 4
Filename C:\EAC\Lou Reed - Berlin (2006) [FLAC] (9 Disc Boxset Japan Mini LP 2006 Remasters)\Lou Reed - Lou Reed Live (1975) [FLAC] (Japan Mini LP 2006 Remaster)\04 - I'm Waiting For The Man.wav

Pre-gap length 0:00:02.04

Peak level 100.0 %
Track quality 100.0 %
Test CRC C6C85453
Copy CRC C6C85453
Copy OK

Track 5
Filename C:\EAC\Lou Reed - Berlin (2006) [FLAC] (9 Disc Boxset Japan Mini LP 2006 Remasters)\Lou Reed - Lou Reed Live (1975) [FLAC] (Japan Mini LP 2006 Remaster)\05 - Oh Jim.wav

Peak level 100.0 %
Track quality 100.0 %
Test CRC 56E55FE2
Copy CRC 56E55FE2
Copy OK

Track 6
Filename C:\EAC\Lou Reed - Berlin (2006) [FLAC] (9 Disc Boxset Japan Mini LP 2006 Remasters)\Lou Reed - Lou Reed Live (1975) [FLAC] (Japan Mini LP 2006 Remaster)\06 - Sad Song.wav

Peak level 100.0 %
Track quality 100.0 %
Test CRC E278F5C3
Copy CRC E278F5C3
Copy OK

No errors occured


End of status report


Lou Reed - 9 Album Collection (1972-76) [9CD] {2006 Japan Mini LP Remaster} - Repost


–––––––––––––––-

Lou Reed - 9 Album Collection (1972-76) [9CD] {2006 Japan Mini LP Remaster} - Repost

Lou Reed - Metal Machine Music (1975)
EAC Rip | FLAC (tracks+.cue+log) - 480 MB | Scans | MP3 CBR 320 kbps (LAME 3.98) - 153 MB
Genre: rock | RAR 5% Rec. | Label: RCA / BMG Japan | CAT # BVCM-37731 | Mini LP 2006

One would be hard-pressed to name a major artist who ever released an album as thoroughly alienating as Lou Reed's Metal Machine Music; at a time when noise rock and punk had yet to make their presence known, Reed released this 64-minute aural assault that offered up a densely layered soundscape constructed from feedback, distortion, and atonal guitar runs sped up or slowed down until they were all but unrecognizable. Metal Machine Music seems a bit less startling today, now that bands like Sonic Youth and the Boredoms have created some sort of context for it, but it hasn't gotten any more user friendly with time – while Thurston Moore may go nuts on his guitar like this for three or four minutes at a stretch, Metal Machine Music goes on and on and on for over an hour, pausing only for side breaks with no rhythms, melodies, or formal structures to buffer the onslaught. If you're brave enough to listen to the whole thing, it's hard not to marvel at the scope of Reed's obsession; it's obvious he spent a lot of time on these layered sheets of noise, and enthusiasts of the violent guitar freakout may find it pleasing in short bursts. But confronting Metal Machine Music from front to back in one sitting is an experience that's both brutal and numbing. It's hard to say what Lou Reed had in mind when he made Metal Machine Music, and Reed has done little to clarify the issue over the years, though he summed it up quite pointedly in an interview in which he said, "Well, anyone who gets to side four is dumber than I am." For the record, I did get to side four. But I got paid for it.
TRACKLIST
1. Metal Machine Music, Part 1
2. Metal Machine Music, Part 2
3. Metal Machine Music, Part 3
4. Metal Machine Music, Part 4

EAC extraction logfile from 9. October 2007, 21:19 for CD
Lou Reed / Metal Machine Music

Used drive : HL-DT-STDVD-RAM GSA-H22L Adapter: 1 ID: 0
Read mode : Secure with NO C2, accurate stream, disable cache
Read offset correction : 102
Overread into Lead-In and Lead-Out : No

Used output format : C:\Program Files\FLAC\flac.exe (User Defined Encoder)
128 kBit/s
Additional command line options : -5 -V -T "ARTIST=%a" -T "TITLE=%t" -T "ALBUM=%g" -T "DATE=%y" -T "TRACKNUMBER=%n" -T "GENRE=%m" -T "COMMENT=EAC Flac 1.2.0 -5" %s

Other options :
Fill up missing offset samples with silence : Yes
Delete leading and trailing silent blocks : No
Installed external ASPI interface


Track 1
Filename C:\EAC\Lou Reed - Berlin (2006) [FLAC] (9 Disc Boxset Japan Mini LP 2006 Remasters)\Lou Reed - Metal Machine Music (1975) [FLAC] (Japan Mini LP 2006 Remaster)\01 - Metal Machine Music, Part 1.wav

Pre-gap length 0:00:02.00

Peak level 100.0 %
Track quality 100.0 %
Test CRC A895042F
Copy CRC A895042F
Copy OK

Track 2
Filename C:\EAC\Lou Reed - Berlin (2006) [FLAC] (9 Disc Boxset Japan Mini LP 2006 Remasters)\Lou Reed - Metal Machine Music (1975) [FLAC] (Japan Mini LP 2006 Remaster)\02 - Metal Machine Music, Part 2.wav

Pre-gap length 0:00:08.33

Peak level 100.0 %
Track quality 100.0 %
Test CRC 6986E4B9
Copy CRC 6986E4B9
Copy OK

Track 3
Filename C:\EAC\Lou Reed - Berlin (2006) [FLAC] (9 Disc Boxset Japan Mini LP 2006 Remasters)\Lou Reed - Metal Machine Music (1975) [FLAC] (Japan Mini LP 2006 Remaster)\03 - Metal Machine Music, Part 3.wav

Pre-gap length 0:00:02.72

Peak level 100.0 %
Track quality 100.0 %
Test CRC 42A69211
Copy CRC 42A69211
Copy OK

Track 4
Filename C:\EAC\Lou Reed - Berlin (2006) [FLAC] (9 Disc Boxset Japan Mini LP 2006 Remasters)\Lou Reed - Metal Machine Music (1975) [FLAC] (Japan Mini LP 2006 Remaster)\04 - Metal Machine Music, Part 4.wav

Pre-gap length 0:00:07.29

Peak level 100.0 %
Track quality 100.0 %
Test CRC 5755383E
Copy CRC 5755383E
Copy OK

No errors occured


End of status report


Lou Reed - 9 Album Collection (1972-76) [9CD] {2006 Japan Mini LP Remaster} - Repost


–––––––––––––––––––––––––––––––––––-

Lou Reed - 9 Album Collection (1972-76) [9CD] {2006 Japan Mini LP Remaster} - Repost

Lou Reed - Coney Island Baby (1976)
EAC Rip | FLAC (tracks+.cue+log) - 417 MB | Scans | MP3 CBR 320 kbps (LAME 3.98) - 147 MB
Genre: rock | RAR 5% Rec. | Label: RCA / BMG Japan | CAT # BVCM-37732 | Mini LP 2006

From 1972's Transformer onward, Lou Reed spent most of the '70s playing the druggy decadence card for all it was worth, with increasingly mixed results. But on 1976's Coney Island Baby, Reed's songwriting began to move into warmer, more compassionate territory, and the result was his most approachable album since Loaded. On most of the tracks, Reed stripped his band back down to guitar, bass, and drums, and the results were both leaner and a lot more comfortable than the leaden over-production of Sally Can't Dance or Berlin. "Crazy Feeling," "She's My Best Friend," and "Coney Island Baby" found Reed actually writing recognizable love songs for a change, and while Reed pursued his traditional interest in the underside of the hipster's life on "Charlie's Girl" and "Nobody's Business," he did so with a breezy, freewheeling air that was truly a relief after the lethargic tone of Sally Can't Dance. "Kicks" used an audio-tape collage to generate atmospheric tension that gave its tale of drugs and death a chilling quality that was far more effective than his usual blasé take on the subject, and "Coney Island Baby" was the polar opposite, a song about love and regret that was as sincere and heart-tugging as anything the man has ever recorded. Coney Island Baby sounds casual on the surface, but emotionally it's as compelling as anything Lou Reed released in the 1970s, and proved he could write about real people with recognizable emotions as well as anyone in rock music – something you might not have guessed from most of the solo albums that preceded it.
TRACKLIST
01. Crazy Feeling
02. Charley's Girl
03. She's My Best Friend
04. Kicks
05. Gift
06. Ooohhh Baby
07. Nobody's Business
08. Coney Island Baby
09. Nowhere at All
10. Downtown Dirt
11. Leave Me Alone
12. Crazy Feeling (Alternate Version)
13. She's My Best Friend (Alternate Version)
14. Coney Island Baby (Alternate Version)

EAC extraction logfile from 10. October 2007, 9:56 for CD
Lou Reed / Coney Island Baby

Used drive : HL-DT-STDVD-RAM GSA-H22L Adapter: 1 ID: 0
Read mode : Secure with NO C2, accurate stream, disable cache
Read offset correction : 102
Overread into Lead-In and Lead-Out : No

Used output format : C:\Program Files\FLAC\flac.exe (User Defined Encoder)
128 kBit/s
Additional command line options : -5 -V -T "ARTIST=%a" -T "TITLE=%t" -T "ALBUM=%g" -T "DATE=%y" -T "TRACKNUMBER=%n" -T "GENRE=%m" -T "COMMENT=EAC Flac 1.2.0 -5" %s

Other options :
Fill up missing offset samples with silence : Yes
Delete leading and trailing silent blocks : No
Installed external ASPI interface


Track 1
Filename C:\EAC\Lou Reed - Berlin (2006) [FLAC] (9 Disc Boxset Japan Mini LP 2006 Remasters)\Lou Reed - Coney Island Baby (1976) [FLAC] (Japan Mini LP 2006 Remaster)\01 - Crazy Feeling.wav

Pre-gap length 0:00:02.00

Peak level 100.0 %
Track quality 100.0 %
Test CRC E342C210
Copy CRC E342C210
Copy OK

Track 2
Filename C:\EAC\Lou Reed - Berlin (2006) [FLAC] (9 Disc Boxset Japan Mini LP 2006 Remasters)\Lou Reed - Coney Island Baby (1976) [FLAC] (Japan Mini LP 2006 Remaster)\02 - Charley's Girl.wav

Peak level 100.0 %
Track quality 100.0 %
Test CRC F500AF69
Copy CRC F500AF69
Copy OK

Track 3
Filename C:\EAC\Lou Reed - Berlin (2006) [FLAC] (9 Disc Boxset Japan Mini LP 2006 Remasters)\Lou Reed - Coney Island Baby (1976) [FLAC] (Japan Mini LP 2006 Remaster)\03 - She's My Best Friend.wav

Peak level 97.7 %
Track quality 100.0 %
Test CRC C612F5F9
Copy CRC C612F5F9
Copy OK

Track 4
Filename C:\EAC\Lou Reed - Berlin (2006) [FLAC] (9 Disc Boxset Japan Mini LP 2006 Remasters)\Lou Reed - Coney Island Baby (1976) [FLAC] (Japan Mini LP 2006 Remaster)\04 - Kicks.wav

Peak level 97.7 %
Track quality 99.9 %
Test CRC BBFB007A
Copy CRC BBFB007A
Copy OK

Track 5
Filename C:\EAC\Lou Reed - Berlin (2006) [FLAC] (9 Disc Boxset Japan Mini LP 2006 Remasters)\Lou Reed - Coney Island Baby (1976) [FLAC] (Japan Mini LP 2006 Remaster)\05 - Gift.wav

Peak level 100.0 %
Track quality 100.0 %
Test CRC 5C30BD1A
Copy CRC 5C30BD1A
Copy OK

Track 6
Filename C:\EAC\Lou Reed - Berlin (2006) [FLAC] (9 Disc Boxset Japan Mini LP 2006 Remasters)\Lou Reed - Coney Island Baby (1976) [FLAC] (Japan Mini LP 2006 Remaster)\06 - Ooohhh Baby.wav

Peak level 100.0 %
Track quality 99.9 %
Test CRC 1DD25D57
Copy CRC 1DD25D57
Copy OK

Track 7
Filename C:\EAC\Lou Reed - Berlin (2006) [FLAC] (9 Disc Boxset Japan Mini LP 2006 Remasters)\Lou Reed - Coney Island Baby (1976) [FLAC] (Japan Mini LP 2006 Remaster)\07 - Nobody's Business.wav

Peak level 99.9 %
Track quality 100.0 %
Test CRC 8D8EB0EA
Copy CRC 8D8EB0EA
Copy OK

Track 8
Filename C:\EAC\Lou Reed - Berlin (2006) [FLAC] (9 Disc Boxset Japan Mini LP 2006 Remasters)\Lou Reed - Coney Island Baby (1976) [FLAC] (Japan Mini LP 2006 Remaster)\08 - Coney Island Baby.wav

Peak level 100.0 %
Track quality 99.9 %
Test CRC EE9F3B8F
Copy CRC EE9F3B8F
Copy OK

Track 9
Filename C:\EAC\Lou Reed - Berlin (2006) [FLAC] (9 Disc Boxset Japan Mini LP 2006 Remasters)\Lou Reed - Coney Island Baby (1976) [FLAC] (Japan Mini LP 2006 Remaster)\09 - Nowhere at All.wav

Pre-gap length 0:00:07.86

Peak level 100.0 %
Track quality 100.0 %
Test CRC 8088A111
Copy CRC 8088A111
Copy OK

Track 10
Filename C:\EAC\Lou Reed - Berlin (2006) [FLAC] (9 Disc Boxset Japan Mini LP 2006 Remasters)\Lou Reed - Coney Island Baby (1976) [FLAC] (Japan Mini LP 2006 Remaster)\10 - Downtown Dirt.wav

Pre-gap length 0:00:01.09

Peak level 99.9 %
Track quality 100.0 %
Test CRC 1D4CA97B
Copy CRC 1D4CA97B
Copy OK

Track 11
Filename C:\EAC\Lou Reed - Berlin (2006) [FLAC] (9 Disc Boxset Japan Mini LP 2006 Remasters)\Lou Reed - Coney Island Baby (1976) [FLAC] (Japan Mini LP 2006 Remaster)\11 - Leave Me Alone.wav

Pre-gap length 0:00:02.16

Peak level 96.6 %
Track quality 99.9 %
Test CRC ADEC25FB
Copy CRC ADEC25FB
Copy OK

Track 12
Filename C:\EAC\Lou Reed - Berlin (2006) [FLAC] (9 Disc Boxset Japan Mini LP 2006 Remasters)\Lou Reed - Coney Island Baby (1976) [FLAC] (Japan Mini LP 2006 Remaster)\12 - Crazy Feeling (Alternate Version).wav

Pre-gap length 0:00:01.66

Peak level 94.4 %
Track quality 99.9 %
Test CRC E92E2EEB
Copy CRC E92E2EEB
Copy OK

Track 13
Filename C:\EAC\Lou Reed - Berlin (2006) [FLAC] (9 Disc Boxset Japan Mini LP 2006 Remasters)\Lou Reed - Coney Island Baby (1976) [FLAC] (Japan Mini LP 2006 Remaster)\13 - She's My Best Friend (Alternate Version).wav

Pre-gap length 0:00:01.20

Peak level 99.8 %
Track quality 100.0 %
Test CRC D3C3F5B5
Copy CRC D3C3F5B5
Copy OK

Track 14
Filename C:\EAC\Lou Reed - Berlin (2006) [FLAC] (9 Disc Boxset Japan Mini LP 2006 Remasters)\Lou Reed - Coney Island Baby (1976) [FLAC] (Japan Mini LP 2006 Remaster)\14 - Coney Island Baby (Alternate Version).wav

Pre-gap length 0:00:01.42

Peak level 100.0 %
Track quality 100.0 %
Test CRC 4359526A
Copy CRC 4359526A
Copy OK

No errors occured


End of status report


Lou Reed - 9 Album Collection (1972-76) [9CD] {2006 Japan Mini LP Remaster} - Repost


––––––––––––––––––––––––––––-

Lou Reed - 9 Album Collection (1972-76) [9CD] {2006 Japan Mini LP Remaster} - Repost

Lou Reed - Rock and Roll Heart (1976)
EAC Rip | FLAC (tracks+.cue+log) - 250 MB | Scans | MP3 CBR 320 kbps (LAME 3.98) - 91 MB
Genre: rock | RAR 5% Rec. | Label: RCA / BMG Japan | CAT # BVCM-37733 | Mini LP 2006

Rock and Roll Heart was Lou Reed's first album for Arista Records, and one senses that he wanted to come up with something saleable for his new sponsors. Uptempo numbers with pop hooks dominate the set, the 12 songs zip by in an efficient 38 minutes, and instead of Reed's trademark meditations on the dark side of life, the lyrics are (for the most part) lean bursts of verse and chorus, in which the artist sings the praises of good times in general and rock & roll in particular (then again, on "I Believe in Love," Reed pledges his allegiance to both "good time music" and "the iron cross," a bit of perversity to remind us whose album this is). But if Rock and Roll Heart sounds like "Lou Reed Lite," there are more than a few flashes of Reed's inarguable talent. His band is in fine form (especially Marty Fogel on sax and Michael Fonfara on keyboards). "Banging on My Drum" is a crunchy rocker that recalls his work with the Velvet Underground; "A Sheltered Life" is an amusing bit of VU archeology (the Velvets demoed the song, but this marked its first appearance on record); and the closer, "Temporary Thing," is a bitter, haunting narrative that foreshadows Reed's next album, the harrowing masterpiece Street Hassle.
TRACKLIST
01. I Believe In Love
02. Banging On My Drum
03. Follow The Leader
04. You Wear It So Well
05. Ladies Pay
06. Rock And Roll Heart
07. Chooser And The Chosen One
08. Senselessly Cruel
09. Claim To Fame
10. Vicious Circle
11. A Sheltered Life
12. Temporary Thing

EAC extraction logfile from 10. October 2007, 0:35 for CD
Lou Reed / Rock And Roll Heart

Used drive : HL-DT-STDVD-RAM GSA-H22L Adapter: 1 ID: 0
Read mode : Secure with NO C2, accurate stream, disable cache
Read offset correction : 102
Overread into Lead-In and Lead-Out : No

Used output format : C:\Program Files\FLAC\flac.exe (User Defined Encoder)
128 kBit/s
Additional command line options : -5 -V -T "ARTIST=%a" -T "TITLE=%t" -T "ALBUM=%g" -T "DATE=%y" -T "TRACKNUMBER=%n" -T "GENRE=%m" -T "COMMENT=EAC Flac 1.2.0 -5" %s

Other options :
Fill up missing offset samples with silence : Yes
Delete leading and trailing silent blocks : No
Installed external ASPI interface


Track 1
Filename C:\EAC\Lou Reed - Berlin (2006) [FLAC] (9 Disc Boxset Japan Mini LP 2006 Remasters)\Lou Reed - Rock And Roll Heart (1976) [FLAC] (Japan Mini LP 2006 Remaster)\01 - I Believe In Love.wav

Pre-gap length 0:00:02.00

Peak level 100.0 %
Track quality 100.0 %
Test CRC EB9D7A7C
Copy CRC EB9D7A7C
Copy OK

Track 2
Filename C:\EAC\Lou Reed - Berlin (2006) [FLAC] (9 Disc Boxset Japan Mini LP 2006 Remasters)\Lou Reed - Rock And Roll Heart (1976) [FLAC] (Japan Mini LP 2006 Remaster)\02 - Banging On My Drum.wav

Pre-gap length 0:00:01.02

Peak level 100.0 %
Track quality 100.0 %
Test CRC 929E2014
Copy CRC 929E2014
Copy OK

Track 3
Filename C:\EAC\Lou Reed - Berlin (2006) [FLAC] (9 Disc Boxset Japan Mini LP 2006 Remasters)\Lou Reed - Rock And Roll Heart (1976) [FLAC] (Japan Mini LP 2006 Remaster)\03 - Follow The Leader.wav

Peak level 100.0 %
Track quality 100.0 %
Test CRC 3938155E
Copy CRC 3938155E
Copy OK

Track 4
Filename C:\EAC\Lou Reed - Berlin (2006) [FLAC] (9 Disc Boxset Japan Mini LP 2006 Remasters)\Lou Reed - Rock And Roll Heart (1976) [FLAC] (Japan Mini LP 2006 Remaster)\04 - You Wear It So Well.wav

Pre-gap length 0:00:01.20

Peak level 100.0 %
Track quality 100.0 %
Test CRC 941D830C
Copy CRC 941D830C
Copy OK

Track 5
Filename C:\EAC\Lou Reed - Berlin (2006) [FLAC] (9 Disc Boxset Japan Mini LP 2006 Remasters)\Lou Reed - Rock And Roll Heart (1976) [FLAC] (Japan Mini LP 2006 Remaster)\05 - Ladies Pay.wav

Pre-gap length 0:00:01.69

Peak level 100.0 %
Track quality 100.0 %
Test CRC 7C513917
Copy CRC 7C513917
Copy OK

Track 6
Filename C:\EAC\Lou Reed - Berlin (2006) [FLAC] (9 Disc Boxset Japan Mini LP 2006 Remasters)\Lou Reed - Rock And Roll Heart (1976) [FLAC] (Japan Mini LP 2006 Remaster)\06 - Rock And Roll Heart.wav

Pre-gap length 0:00:02.02

Peak level 100.0 %
Track quality 100.0 %
Test CRC 4298DB69
Copy CRC 4298DB69
Copy OK

Track 7
Filename C:\EAC\Lou Reed - Berlin (2006) [FLAC] (9 Disc Boxset Japan Mini LP 2006 Remasters)\Lou Reed - Rock And Roll Heart (1976) [FLAC] (Japan Mini LP 2006 Remaster)\07 - Chooser And The Chosen One.wav

Pre-gap length 0:00:01.85

Peak level 100.0 %
Track quality 100.0 %
Test CRC F3989BFB
Copy CRC F3989BFB
Copy OK

Track 8
Filename C:\EAC\Lou Reed - Berlin (2006) [FLAC] (9 Disc Boxset Japan Mini LP 2006 Remasters)\Lou Reed - Rock And Roll Heart (1976) [FLAC] (Japan Mini LP 2006 Remaster)\08 - Senselessly Cruel.wav

Pre-gap length 0:00:01.56

Peak level 100.0 %
Track quality 100.0 %
Test CRC 218E4A6B
Copy CRC 218E4A6B
Copy OK

Track 9
Filename C:\EAC\Lou Reed - Berlin (2006) [FLAC] (9 Disc Boxset Japan Mini LP 2006 Remasters)\Lou Reed - Rock And Roll Heart (1976) [FLAC] (Japan Mini LP 2006 Remaster)\09 - Claim To Fame.wav

Pre-gap length 0:00:01.14

Peak level 100.0 %
Track quality 100.0 %
Test CRC 35321425
Copy CRC 35321425
Copy OK

Track 10
Filename C:\EAC\Lou Reed - Berlin (2006) [FLAC] (9 Disc Boxset Japan Mini LP 2006 Remasters)\Lou Reed - Rock And Roll Heart (1976) [FLAC] (Japan Mini LP 2006 Remaster)\10 - Vicious Circle.wav

Pre-gap length 0:00:01.56

Peak level 100.0 %
Track quality 100.0 %
Test CRC 0443B944
Copy CRC 0443B944
Copy OK

Track 11
Filename C:\EAC\Lou Reed - Berlin (2006) [FLAC] (9 Disc Boxset Japan Mini LP 2006 Remasters)\Lou Reed - Rock And Roll Heart (1976) [FLAC] (Japan Mini LP 2006 Remaster)\11 - A Sheltered Life.wav

Pre-gap length 0:00:01.62

Peak level 100.0 %
Track quality 100.0 %
Test CRC 162D9636
Copy CRC 162D9636
Copy OK

Track 12
Filename C:\EAC\Lou Reed - Berlin (2006) [FLAC] (9 Disc Boxset Japan Mini LP 2006 Remasters)\Lou Reed - Rock And Roll Heart (1976) [FLAC] (Japan Mini LP 2006 Remaster)\12 - Temporary Thing.wav

Pre-gap length 0:00:01.53

Peak level 100.0 %
Track quality 100.0 %
Test CRC 477408D0
Copy CRC 477408D0
Copy OK

No errors occured


End of status report


Lou Reed - 9 Album Collection (1972-76) [9CD] {2006 Japan Mini LP Remaster} - Repost

Special Thanks to the original uploader!



Lou Reed - Lou Reed (1972)


UPLOADED LINKS

BITSHARE LINKS

DEPOSITFILES LINKS



Lou Reed - Transformer (1972)


UPLOADED LINKS

BITSHARE LINKS

DEPOSITFILES LINKS



Lou Reed - Berlin (1973)


UPLOADED LINKS

BITSHARE LINKS

DEPOSITFILES LINKS



Lou Reed - Rock N' Roll Animal (1974)


UPLOADED LINKS

BITSHARE LINKS

DEPOSITFILES LINKS



Lou Reed - Sally Can't Dance (1974)


UPLOADED LINKS

BITSHARE LINKS

DEPOSITFILES LINKS



Lou Reed - Lou Reed Live! (1975)


UPLOADED LINKS

BITSHARE LINKS

DEPOSITFILES LINKS



Lou Reed - Metal Machine Music (1975)


UPLOADED LINKS

BITSHARE LINKS

DEPOSITFILES LINKS



Lou Reed - Coney Island Baby (1976)


UPLOADED LINKS

BITSHARE LINKS

DEPOSITFILES LINKS



Lou Reed - Rock and Roll Heart (1976)


UPLOADED LINKS

BITSHARE LINKS

DEPOSITFILES LINKS