Tags
Language
Tags

Lou Reed - Different Times, Lou Reed In The '70s (1996) {RCA 66864-2}

Posted By:
Lou Reed - Different Times, Lou Reed In The '70s (1996) {RCA 66864-2}

Lou Reed - Different Times, Lou Reed In The '70s (1996) {RCA 66864-2}
EAC rip (secure mode) | FLAC (tracks)+CUE+LOG -> 432 Mb | MP3 @320 -> 183 Mb
Full Artwork @ 300 dpi (jpg) -> 20 Mb | 5% repair rar
© 1970's, 1996 RCA Records / BMG | 66864-2
Rock / Rock & Roll / Psychedelic Rock / Art Rock

Lou Reed is very much an album-oriented artist, and those who think they may develop a serious interest in his work are better advised to seek individual titles than compilations. If you just want some of his best songs around the house, though, this is a well-chosen, economic 17-track survey of his best material from his best period as a solo act (the early to mid-'70s). Drawing most heavily from the Transformer and Berlin albums, this has his most famous/notorious early solo works ("Walk on the Wild Side," "Vicious," "Satellite of Love," "Caroline Says"), some inferior but notably different remakes of songs he recorded with the Velvet Underground ("Lisa Says," "I Can't Stand It," "Sweet Jane"), and other high points like "Kill Your Sons" and "Coney Island Baby.
Lou Reed - Different Times, Lou Reed In The '70s (1996) {RCA 66864-2}


Track Listing
01 - I Can't Stand It
02 - Love Makes You Feel
03 - Lisa Says
04 - Walk On The Wild Side
05 - Perfect Day
06 - Satellite Of Love
07 - Vicious
08 - Berlin
09 - Caroline Says I
10 - Sad Song
11 - Caroline Says II
12 - Sweet Jane
13 - Kill Your Sons
14 - Sally Can't Dance
15 - A Gift
16 - She's My Best Friend
17 - Coney Island Baby

Exact Audio Copy V0.99 prebeta 5 from 4. May 2009

EAC extraction logfile from 16. June 2009, 18:51

Lou Reed / Different Times, Lou Reed In The '70s

Used drive : HL-DT-STDVD+-RW GSA-H31L Adapter: 0 ID: 1

Read mode : Secure
Utilize accurate stream : Yes
Defeat audio cache : Yes
Make use of C2 pointers : No

Read offset correction : 102
Overread into Lead-In and Lead-Out : No
Fill up missing offset samples with silence : Yes
Delete leading and trailing silent blocks : No
Null samples used in CRC calculations : Yes
Used interface : Native Win32 interface for Win NT & 2000
Gap handling : Appended to previous track

Used output format : User Defined Encoder
Selected bitrate : 768 kBit/s
Quality : High
Add ID3 tag : No
Command line compressor : C:\Program Files\Exact Audio Copy\FLAC\FLAC.EXE
Additional command line options : -8 -V -T "ARTIST=%a" -T "TITLE=%t" -T "ALBUM=%g" -T "DATE=%y" -T "TRACKNUMBER=%n" -T "GENRE=%m" -T "COMMENT=EAC FLAC -8" %s


TOC of the extracted CD

Track | Start | Length | Start sector | End sector
––––––––––––––––––––––––––––-
1 | 0:00.00 | 2:38.17 | 0 | 11866
2 | 2:38.17 | 3:13.73 | 11867 | 26414
3 | 5:52.15 | 5:34.05 | 26415 | 51469
4 | 11:26.20 | 4:16.57 | 51470 | 70726
5 | 15:43.02 | 3:48.10 | 70727 | 87836
6 | 19:31.12 | 3:42.03 | 87837 | 104489
7 | 23:13.15 | 2:58.39 | 104490 | 117878
8 | 26:11.54 | 3:26.61 | 117879 | 133389
9 | 29:38.40 | 3:57.20 | 133390 | 151184
10 | 33:35.60 | 7:11.12 | 151185 | 183521
11 | 40:46.72 | 4:16.35 | 183522 | 202756
12 | 45:03.32 | 8:02.45 | 202757 | 238951
13 | 53:06.02 | 3:41.18 | 238952 | 255544
14 | 56:47.20 | 4:13.57 | 255545 | 274576
15 | 61:01.02 | 3:48.28 | 274577 | 291704
16 | 64:49.30 | 6:02.60 | 291705 | 318914
17 | 70:52.15 | 6:36.60 | 318915 | 348674


Track 1

Filename C:\Torrents\Lou Reed - Different Times Lou Reed in the '70s (1996) [FLAC]\01 - I Can't Stand It.wav

Pre-gap length 0:00:02.00

Peak level 97.3 %
Track quality 100.0 %
Test CRC C5532195
Copy CRC C5532195
Cannot be verified as accurate (confidence 2) [72E62429], AccurateRip returned [FD57A27C]
Copy OK

Track 2

Filename C:\Torrents\Lou Reed - Different Times Lou Reed in the '70s (1996) [FLAC]\02 - Love Makes You Feel.wav

Pre-gap length 0:00:02.53

Peak level 99.6 %
Track quality 100.0 %
Test CRC EC49A7BF
Copy CRC EC49A7BF
Cannot be verified as accurate (confidence 2) [19ED20A3], AccurateRip returned [BBD6A5EC]
Copy OK

Track 3

Filename C:\Torrents\Lou Reed - Different Times Lou Reed in the '70s (1996) [FLAC]\03 - Lisa Says.wav

Pre-gap length 0:00:02.53

Peak level 88.5 %
Track quality 99.9 %
Test CRC EA12CBE7
Copy CRC EA12CBE7
Cannot be verified as accurate (confidence 2) [84EB5C6A], AccurateRip returned [733E83E8]
Copy OK

Track 4

Filename C:\Torrents\Lou Reed - Different Times Lou Reed in the '70s (1996) [FLAC]\04 - Walk On The Wild Side.wav

Pre-gap length 0:00:02.57

Peak level 51.2 %
Track quality 100.0 %
Test CRC D46D2CC5
Copy CRC D46D2CC5
Cannot be verified as accurate (confidence 2) [65FE62D2], AccurateRip returned [98019F48]
Copy OK

Track 5

Filename C:\Torrents\Lou Reed - Different Times Lou Reed in the '70s (1996) [FLAC]\05 - Perfect Day.wav

Pre-gap length 0:00:02.56

Peak level 84.8 %
Track quality 99.9 %
Test CRC 23661C3B
Copy CRC 23661C3B
Cannot be verified as accurate (confidence 2) [18416D0D], AccurateRip returned [D1E051AC]
Copy OK

Track 6

Filename C:\Torrents\Lou Reed - Different Times Lou Reed in the '70s (1996) [FLAC]\06 - Satellite Of Love.wav

Pre-gap length 0:00:02.56

Peak level 86.7 %
Track quality 100.0 %
Test CRC A34ED322
Copy CRC A34ED322
Cannot be verified as accurate (confidence 2) [401070FE], AccurateRip returned [7A93F33A]
Copy OK

Track 7

Filename C:\Torrents\Lou Reed - Different Times Lou Reed in the '70s (1996) [FLAC]\07 - Vicious.wav

Pre-gap length 0:00:02.57

Peak level 99.2 %
Track quality 100.0 %
Test CRC 8C7879EE
Copy CRC 8C7879EE
Cannot be verified as accurate (confidence 2) [E3F9800B], AccurateRip returned [F1F78E1E]
Copy OK

Track 8

Filename C:\Torrents\Lou Reed - Different Times Lou Reed in the '70s (1996) [FLAC]\08 - Berlin.wav

Pre-gap length 0:00:02.56

Peak level 80.9 %
Track quality 100.0 %
Test CRC 7DF126A7
Copy CRC 7DF126A7
Cannot be verified as accurate (confidence 2) [5B57BF9D], AccurateRip returned [B63EBB3B]
Copy OK

Track 9

Filename C:\Torrents\Lou Reed - Different Times Lou Reed in the '70s (1996) [FLAC]\09 - Caroline Says I.wav

Pre-gap length 0:00:02.57

Peak level 81.2 %
Track quality 100.0 %
Test CRC 2EE2FEF9
Copy CRC 2EE2FEF9
Cannot be verified as accurate (confidence 2) [740123AD], AccurateRip returned [BC248808]
Copy OK

Track 10

Filename C:\Torrents\Lou Reed - Different Times Lou Reed in the '70s (1996) [FLAC]\10 - Sad Song.wav

Peak level 92.4 %
Track quality 100.0 %
Test CRC A8D67703
Copy CRC A8D67703
Cannot be verified as accurate (confidence 2) [D8E2E8CB], AccurateRip returned [768161EE]
Copy OK

Track 11

Filename C:\Torrents\Lou Reed - Different Times Lou Reed in the '70s (1996) [FLAC]\11 - Caroline Says II.wav

Pre-gap length 0:00:02.56

Peak level 90.6 %
Track quality 100.0 %
Test CRC CC14C637
Copy CRC CC14C637
Cannot be verified as accurate (confidence 2) [63AC49DD], AccurateRip returned [3E60F24E]
Copy OK

Track 12

Filename C:\Torrents\Lou Reed - Different Times Lou Reed in the '70s (1996) [FLAC]\12 - Sweet Jane.wav

Pre-gap length 0:00:02.56

Peak level 96.9 %
Track quality 100.0 %
Test CRC 1CF643B6
Copy CRC 1CF643B6
Cannot be verified as accurate (confidence 2) [8E7A65C1], AccurateRip returned [9AAA6222]
Copy OK

Track 13

Filename C:\Torrents\Lou Reed - Different Times Lou Reed in the '70s (1996) [FLAC]\13 - Kill Your Sons.wav

Pre-gap length 0:00:02.57

Peak level 89.6 %
Track quality 100.0 %
Test CRC 792CDBCE
Copy CRC 792CDBCE
Cannot be verified as accurate (confidence 2) [8D1FE7C1], AccurateRip returned [393BC6E8]
Copy OK

Track 14

Filename C:\Torrents\Lou Reed - Different Times Lou Reed in the '70s (1996) [FLAC]\14 - Sally Can't Dance.wav

Pre-gap length 0:00:02.57

Peak level 98.8 %
Track quality 100.0 %
Test CRC 6AEEDB56
Copy CRC 6AEEDB56
Cannot be verified as accurate (confidence 2) [1194ACA6], AccurateRip returned [0F60935D]
Copy OK

Track 15

Filename C:\Torrents\Lou Reed - Different Times Lou Reed in the '70s (1996) [FLAC]\15 - A Gift.wav

Pre-gap length 0:00:02.56

Peak level 75.2 %
Track quality 100.0 %
Test CRC 5F38FFB9
Copy CRC 5F38FFB9
Cannot be verified as accurate (confidence 2) [EAFF669B], AccurateRip returned [05EC9630]
Copy OK

Track 16

Filename C:\Torrents\Lou Reed - Different Times Lou Reed in the '70s (1996) [FLAC]\16 - She's My Best Friend.wav

Pre-gap length 0:00:02.57

Peak level 93.5 %
Track quality 100.0 %
Test CRC 4660A014
Copy CRC 4660A014
Cannot be verified as accurate (confidence 2) [E407527F], AccurateRip returned [983BE64C]
Copy OK

Track 17

Filename C:\Torrents\Lou Reed - Different Times Lou Reed in the '70s (1996) [FLAC]\17 - Coney Island Baby.wav

Pre-gap length 0:00:02.57

Peak level 88.2 %
Track quality 100.0 %
Test CRC A50D1C88
Copy CRC A50D1C88
Cannot be verified as accurate (confidence 2) [36D00238], AccurateRip returned [5054B159]
Copy OK


No tracks could be verified as accurate
You may have a different pressing from the one(s) in the database

No errors occurred

End of status report


Lou Reed - Different Times, Lou Reed In The '70s (1996) {RCA 66864-2}

Lou Reed - Different Times, Lou Reed In The '70s (1996) {RCA 66864-2}



===