Tags
Language
Tags

Louise Farrenc - Les 3 Symphonies - Orchestre de Bretagne, Stefan Sanderling (2001) {2CD Set Pierre Verany PV700030}

Posted By:
Louise Farrenc - Les 3 Symphonies - Orchestre de Bretagne, Stefan Sanderling (2001) {2CD Set Pierre Verany PV700030}

Louise Farrenc - Les 3 Symphonies - Orchestre de Bretagne, Stefan Sanderling (2001) {2CD Set Pierre Verany PV700030}
XLD rip (secure mode) | FLAC (tracks)+CUE+LOG -> 404 Mb | MP3 @320 -> 234 Mb
Full Artwork @ 600 dpi (jpg) -> 73 Mb | 5% repair rar
© 2001 Disques Pierre Verany / Arion | PV700030
Classical / Romantic / Symphony / Orchestral

If you want to check a symphonist's freshness and originality, go to a trio section. It always marks out the jobsworths. By that test Louise Farrenc well deserved her prominence as pianist, composer and teacher. All her symphonies date from the mid-1840s, when hardly anybody else in Paris wrote in the form, and though acclaimed they were never published. Yet they evolve purposefully from a Hummel-Mendelssohn style to something uncannily like Schubert, both in harmonic quirks and in the prominence of the woodwind.

She was well enough connected - Schumann reviewed her and she left an unfinished piano concerto that looks like Weber — but however could she have known Schubert's early symphonies? She must have reached similar ideas independently. All three works are well worth the time of anybody who can respond, say, to her Swedish contemporary Franz Berwald, writer of symphonies with a similar level of interest and rather less vigour. High points in addition to the scherzos include the Andante of No. 2, full of vitality in its detail with wind singing out over active strings, and the dramatic outer movements of No. 3, by the time of which her dutiful development sections had freed themselves up. Recorded live, the performances are robust, pacy and fluent.

Performers:
Louise Farrenc (1804-1875) - composer
Orchestre de Bretagne
Stefan Sanderling
- conductor

Recording: Live, Opera of Rennes, 24, 26 & 28 April 2001

Works on This Recording

Symphony No. 1 Op. 32 in C minor

01 I. Andante Sostenuto - Allegro
02 II. Adagio cantabile
03 III. Minuetto. Moderato
04 IV. Allegro assai

Symphony No. 2 Op. 35 in D major
05 I. Andante - Allegro
06 II. Andante
07 III. Scherzo. Vivace
08 IV. Andante - Allegro

Symphony No. 3 Op. 36 in G minor
09 I. Adagio - Allegro
10 II. Adagio Cantabile
11 III. Scherzo. Vivace
12 IV. Finale. Allegro

X Lossless Decoder version 20140504 (147.0)

XLD extraction logfile from 2014-08-08 21:56:27 +0200

Stefan Sanderling/Orchestre de Bretagne / Louise Farrenc - Les 3 Symphonies - Live Recording - Orchestre de Bretagne • Stefan Sanderling, conductor [Disques Pierre Verany]

Used drive : TSSTcorp CDDVDW SE-S084D (revision TS01)
Media type : Pressed CD

Ripper mode : XLD Secure Ripper
Disable audio cache : OK for the drive with a cache less than 1375KiB
Make use of C2 pointers : NO
Read offset correction : 6
Max retry count : 100
Gap status : Analyzed, Appended (except HTOA)

TOC of the extracted CD
Track | Start | Length | Start sector | End sector
––––––––––––––––––––––––––––-
1 | 00:00:00 | 11:26:32 | 0 | 51481
2 | 11:26:32 | 07:26:48 | 51482 | 84979
3 | 18:53:05 | 04:39:67 | 84980 | 105971
4 | 23:32:72 | 07:26:05 | 105972 | 139426
5 | 30:59:02 | 11:22:58 | 139427 | 190634
6 | 42:21:60 | 07:12:15 | 190635 | 223049
7 | 49:34:00 | 06:04:55 | 223050 | 250404
8 | 55:38:55 | 08:38:42 | 250405 | 289296

List of alternate offset correction values
# | Absolute | Relative | Confidence
–––––––––––––––––––––
1 | 36 | 30 | 1

AccurateRip Summary (DiscID: 00145fd0-008623d9-6c0f1108)
Track 01 : OK (v1, confidence 1/1, with different offset)
Track 02 : OK (v1, confidence 1/1, with different offset)
Track 03 : OK (v1, confidence 1/1, with different offset)
Track 04 : OK (v1, confidence 1/1, with different offset)
Track 05 : OK (v1, confidence 1/1, with different offset)
Track 06 : OK (v1, confidence 1/1, with different offset)
Track 07 : OK (v1, confidence 1/1, with different offset)
Track 08 : OK (v1, confidence 1/1, with different offset)
->All tracks accurately ripped.

All Tracks
Album gain : 2.66 dB
Peak : 0.993896
Statistics
Read error : 0
Jitter error (maybe fixed) : 0
Retry sector count : 0
Damaged sector count : 0

Track 01
Filename : /Volumes/4TB 1/CD rips/Composers/Louise Farrenc/Louise Farrenc - Les 3 Symphonies - Live Recording - Orchestre de Bretagne • Stefan Sanderling, conductor [Disques Pierre Verany]/CD 1/01 Symphony No. 1 Op. 32 in C minor: I. Andante Sostenuto - Allegro.flac
Pre-gap length : 00:02:00

Track gain : 1.29 dB
Peak : 0.845001
CRC32 hash (test run) : FEA09A57
CRC32 hash : FEA09A57
CRC32 hash (skip zero) : 9F3513BA
AccurateRip v1 signature : EC9F0512 (3E72A642 w/correction)
AccurateRip v2 signature : E74AA218
->Accurately ripped with different offset (v1, confidence 1/1, offset +30)
Statistics
Read error : 0
Jitter error (maybe fixed) : 0
Retry sector count : 0
Damaged sector count : 0

Track 02
Filename : /Volumes/4TB 1/CD rips/Composers/Louise Farrenc/Louise Farrenc - Les 3 Symphonies - Live Recording - Orchestre de Bretagne • Stefan Sanderling, conductor [Disques Pierre Verany]/CD 1/02 Symphony No. 1 Op. 32 in C minor: II. Adagio cantabile.flac
Pre-gap length : 00:03:50

Track gain : 7.03 dB
Peak : 0.507812
CRC32 hash (test run) : 3D5BDF70
CRC32 hash : 3D5BDF70
CRC32 hash (skip zero) : 94F76BBA
AccurateRip v1 signature : 5EB0F7B3 (FEB502A6 w/correction)
AccurateRip v2 signature : 0A5EE8D8
->Accurately ripped with different offset (v1, confidence 1/1, offset +30)
Statistics
Read error : 0
Jitter error (maybe fixed) : 0
Retry sector count : 0
Damaged sector count : 0

Track 03
Filename : /Volumes/4TB 1/CD rips/Composers/Louise Farrenc/Louise Farrenc - Les 3 Symphonies - Live Recording - Orchestre de Bretagne • Stefan Sanderling, conductor [Disques Pierre Verany]/CD 1/03 Symphony No. 1 Op. 32 in C minor: III. Minuetto. Moderato.flac
Pre-gap length : 00:01:38

Track gain : 2.97 dB
Peak : 0.530212
CRC32 hash (test run) : F898C9DF
CRC32 hash : F898C9DF
CRC32 hash (skip zero) : ABC59E8E
AccurateRip v1 signature : 6F1B2D64 (FBC3C959 w/correction)
AccurateRip v2 signature : 97CA72BC
->Accurately ripped with different offset (v1, confidence 1/1, offset +30)
Statistics
Read error : 0
Jitter error (maybe fixed) : 0
Retry sector count : 0
Damaged sector count : 0

Track 04
Filename : /Volumes/4TB 1/CD rips/Composers/Louise Farrenc/Louise Farrenc - Les 3 Symphonies - Live Recording - Orchestre de Bretagne • Stefan Sanderling, conductor [Disques Pierre Verany]/CD 1/04 Symphony No. 1 Op. 32 in C minor: IV. Allegro assai.flac
Pre-gap length : 00:03:22

Track gain : 0.88 dB
Peak : 0.993896
CRC32 hash (test run) : ACEDE060
CRC32 hash : ACEDE060
CRC32 hash (skip zero) : 928AA017
AccurateRip v1 signature : 3BF44911 (25F73315 w/correction)
AccurateRip v2 signature : 4D21F859
->Accurately ripped with different offset (v1, confidence 1/1, offset +30)
Statistics
Read error : 0
Jitter error (maybe fixed) : 0
Retry sector count : 0
Damaged sector count : 0

Track 05
Filename : /Volumes/4TB 1/CD rips/Composers/Louise Farrenc/Louise Farrenc - Les 3 Symphonies - Live Recording - Orchestre de Bretagne • Stefan Sanderling, conductor [Disques Pierre Verany]/CD 1/05 Symphony No. 2 Op. 35 in D major: I. Andante - Allegro.flac
Pre-gap length : 00:06:45

Track gain : 3.96 dB
Peak : 0.547821
CRC32 hash (test run) : C234DEAF
CRC32 hash : C234DEAF
CRC32 hash (skip zero) : CDB6C94E
AccurateRip v1 signature : 29FD6554 (87AFD7C9 w/correction)
AccurateRip v2 signature : 86410CF6
->Accurately ripped with different offset (v1, confidence 1/1, offset +30)
Statistics
Read error : 0
Jitter error (maybe fixed) : 0
Retry sector count : 0
Damaged sector count : 0

Track 06
Filename : /Volumes/4TB 1/CD rips/Composers/Louise Farrenc/Louise Farrenc - Les 3 Symphonies - Live Recording - Orchestre de Bretagne • Stefan Sanderling, conductor [Disques Pierre Verany]/CD 1/06 Symphony No. 2 Op. 35 in D major: II. Andante.flac
Pre-gap length : 00:02:50

Track gain : 7.14 dB
Peak : 0.406219
CRC32 hash (test run) : 43472393
CRC32 hash : 43472393
CRC32 hash (skip zero) : 419A12F3
AccurateRip v1 signature : 041FB30D (3700C4CA w/correction)
AccurateRip v2 signature : 85206924
->Accurately ripped with different offset (v1, confidence 1/1, offset +30)
Statistics
Read error : 0
Jitter error (maybe fixed) : 0
Retry sector count : 0
Damaged sector count : 0

Track 07
Filename : /Volumes/4TB 1/CD rips/Composers/Louise Farrenc/Louise Farrenc - Les 3 Symphonies - Live Recording - Orchestre de Bretagne • Stefan Sanderling, conductor [Disques Pierre Verany]/CD 1/07 Symphony No. 2 Op. 35 in D major: III. Scherzo. Vivace.flac
Pre-gap length : 00:02:60

Track gain : 4.33 dB
Peak : 0.565308
CRC32 hash (test run) : 49A57F34
CRC32 hash : 49A57F34
CRC32 hash (skip zero) : 87DAC989
AccurateRip v1 signature : 6CECFB26 (030BEABB w/correction)
AccurateRip v2 signature : A7D5F633
->Accurately ripped with different offset (v1, confidence 1/1, offset +30)
Statistics
Read error : 0
Jitter error (maybe fixed) : 0
Retry sector count : 0
Damaged sector count : 0

Track 08
Filename : /Volumes/4TB 1/CD rips/Composers/Louise Farrenc/Louise Farrenc - Les 3 Symphonies - Live Recording - Orchestre de Bretagne • Stefan Sanderling, conductor [Disques Pierre Verany]/CD 1/08 Symphony No. 2 Op. 35 in D major: IV. Andante - Allegro.flac
Pre-gap length : 00:03:60

Track gain : 2.16 dB
Peak : 0.657654
CRC32 hash (test run) : 0E5FAF48
CRC32 hash : 0E5FAF48
CRC32 hash (skip zero) : 6BD67818
AccurateRip v1 signature : 05FA7E49 (DF0D81F6 w/correction)
AccurateRip v2 signature : 531CD294
->Accurately ripped with different offset (v1, confidence 1/1, offset +30)
Statistics
Read error : 0
Jitter error (maybe fixed) : 0
Retry sector count : 0
Damaged sector count : 0

No errors occurred

End of status report

––-BEGIN XLD SIGNATURE––-
ij3Z1.dhAgyJ2NwUzPFm8e4HFxiAGluoA_pdSmL5I37BXSdt6WE4V82rZIjXg6tXud55pxVbnmUQU7lLwY94y1whsH5bfQ0xl6f2YS0
––-END XLD SIGNATURE––-
X Lossless Decoder version 20140504 (147.0)

XLD extraction logfile from 2014-08-08 22:23:15 +0200

Stefan Sanderling/Orchestre de Bretagne / Louise Farrenc - Les 3 Symphonies - Live Recording - Orchestre de Bretagne • Stefan Sanderling, conductor [Disques Pierre Verany]

Used drive : TSSTcorp CDDVDW SE-S084D (revision TS01)
Media type : Pressed CD

Ripper mode : XLD Secure Ripper
Disable audio cache : OK for the drive with a cache less than 1375KiB
Make use of C2 pointers : NO
Read offset correction : 6
Max retry count : 100
Gap status : Analyzed, Appended (except HTOA)

TOC of the extracted CD
Track | Start | Length | Start sector | End sector
––––––––––––––––––––––––––––-
1 | 00:00:00 | 11:17:27 | 0 | 50801
2 | 11:17:27 | 08:12:05 | 50802 | 87706
3 | 19:29:32 | 07:48:10 | 87707 | 122816
4 | 27:17:42 | 06:14:28 | 122817 | 150894

List of alternate offset correction values
# | Absolute | Relative | Confidence
–––––––––––––––––––––
1 | 36 | 30 | 1

AccurateRip Summary (DiscID: 00064a3d-001892e5-3507db04)
Track 01 : OK (v1, confidence 1/1, with different offset)
Track 02 : OK (v1, confidence 1/1, with different offset)
Track 03 : OK (v1, confidence 1/1, with different offset)
Track 04 : OK (v1, confidence 1/1, with different offset)
->All tracks accurately ripped.

All Tracks
Album gain : 0.59 dB
Peak : 0.868622
Statistics
Read error : 0
Jitter error (maybe fixed) : 0
Retry sector count : 0
Damaged sector count : 0

Track 01
Filename : /Volumes/4TB 1/CD rips/Composers/Louise Farrenc/Louise Farrenc - Les 3 Symphonies - Live Recording - Orchestre de Bretagne • Stefan Sanderling, conductor [Disques Pierre Verany]/CD 2/01 Symphony No. 3 Op. 36 in G minor: I. Adagio - Allegro.flac
Pre-gap length : 00:02:00

Track gain : -0.08 dB
Peak : 0.868622
CRC32 hash (test run) : C322E789
CRC32 hash : C322E789
CRC32 hash (skip zero) : F5EC1A6A
AccurateRip v1 signature : 130023F7 (1497D5C7 w/correction)
AccurateRip v2 signature : 83479F73
->Accurately ripped with different offset (v1, confidence 1/1, offset +30)
Statistics
Read error : 0
Jitter error (maybe fixed) : 0
Retry sector count : 0
Damaged sector count : 0

Track 02
Filename : /Volumes/4TB 1/CD rips/Composers/Louise Farrenc/Louise Farrenc - Les 3 Symphonies - Live Recording - Orchestre de Bretagne • Stefan Sanderling, conductor [Disques Pierre Verany]/CD 2/02 Symphony No. 3 Op. 36 in G minor: II. Adagio Cantabile.flac
Pre-gap length : 00:02:27

Track gain : 2.34 dB
Peak : 0.740173
CRC32 hash (test run) : 895CECA1
CRC32 hash : 895CECA1
CRC32 hash (skip zero) : 56B4E4F5
AccurateRip v1 signature : A181A937 (3746D280 w/correction)
AccurateRip v2 signature : 12D12D4B
->Accurately ripped with different offset (v1, confidence 1/1, offset +30)
Statistics
Read error : 0
Jitter error (maybe fixed) : 0
Retry sector count : 0
Damaged sector count : 0

Track 03
Filename : /Volumes/4TB 1/CD rips/Composers/Louise Farrenc/Louise Farrenc - Les 3 Symphonies - Live Recording - Orchestre de Bretagne • Stefan Sanderling, conductor [Disques Pierre Verany]/CD 2/03 Symphony No. 3 Op. 36 in G minor: III. Scherzo. Vivace.flac
Pre-gap length : 00:03:60

Track gain : 3.53 dB
Peak : 0.539764
CRC32 hash (test run) : 94C918B3
CRC32 hash : 94C918B3
CRC32 hash (skip zero) : 9AE4A788
AccurateRip v1 signature : 8891AC33 (92C41A0E w/correction)
AccurateRip v2 signature : 4431FC4E
->Accurately ripped with different offset (v1, confidence 1/1, offset +30)
Statistics
Read error : 0
Jitter error (maybe fixed) : 0
Retry sector count : 0
Damaged sector count : 0

Track 04
Filename : /Volumes/4TB 1/CD rips/Composers/Louise Farrenc/Louise Farrenc - Les 3 Symphonies - Live Recording - Orchestre de Bretagne • Stefan Sanderling, conductor [Disques Pierre Verany]/CD 2/04 Symphony No. 3 Op. 36 in G minor: IV. Finale. Allegro.flac
Pre-gap length : 00:03:70

Track gain : -0.83 dB
Peak : 0.839203
CRC32 hash (test run) : B87B1B70
CRC32 hash : B87B1B70
CRC32 hash (skip zero) : 06241F26
AccurateRip v1 signature : 6A97C5E4 (3C8D5BC6 w/correction)
AccurateRip v2 signature : 98BE597C
->Accurately ripped with different offset (v1, confidence 1/1, offset +30)
Statistics
Read error : 0
Jitter error (maybe fixed) : 0
Retry sector count : 0
Damaged sector count : 0

No errors occurred

End of status report

––-BEGIN XLD SIGNATURE––-
jLLvBuGwpIkddOGGF0bdCk5M1xmPKyPMEXZKCEzD6pO5u64du2c3XbmIO.kTk54Qw6DLDzpzD8h3YKrZH93LDz4YNPH9zVAhd2Nv26S
––-END XLD SIGNATURE––-


Louise Farrenc - Les 3 Symphonies - Orchestre de Bretagne, Stefan Sanderling (2001) {2CD Set Pierre Verany PV700030}

Louise Farrenc - Les 3 Symphonies - Orchestre de Bretagne, Stefan Sanderling (2001) {2CD Set Pierre Verany PV700030}

Louise Farrenc - Les 3 Symphonies - Orchestre de Bretagne, Stefan Sanderling (2001) {2CD Set Pierre Verany PV700030}



===