Tags
Language
Tags

Lulu - Back On Track (2004) Re-upload

Posted By: Acheron
Lulu - Back On Track (2004) Re-upload

Lulu - Back On Track (2004)
EAC Rip| Flac (image) + cue + log + scans | MP3 CBR 320 Kbps | 335 MB Flac or 101 MB MP3 | 45:19 mins
Rock, Pop, Vocal | Mercury catalog number 9866136 | FileSonic, Megaupload, Rapidshare


Adding to her huge back catalogue of work since her debut release in 1964, 'Back On Track' sees Lulu once again team up with her songwriting brother Billy Lawrie to perform a collection of rock based pop songs topped with her distinctive raspy voice. The single 'Keep Talkin… I'm Listening' is also included.

Tracklisting :

01 Keep Talkin'… I'm Listening
02 Yeah, Now You Love Me
03 Slow Motion
04 Could I Be More Blue?
05 All The Love In The World
06 Supernatural
07 Roll The Dice
08 I Love You Goodbye
09 Time To Fall
10 Sentimental Heart
11 Kiss And Tell
12 Where The Poor Boys Dance (2004 Version)


Exact Audio Copy V0.99 prebeta 4 from 23. January 2008

EAC extraction logfile from 23. April 2011, 15:48

Lulu / Back On Track

Used drive : TSSTcorpDVD+-RW TS-H653B Adapter: 1 ID: 0

Read mode : Secure
Utilize accurate stream : Yes
Defeat audio cache : No
Make use of C2 pointers : No

Read offset correction : 6
Overread into Lead-In and Lead-Out : No
Fill up missing offset samples with silence : Yes
Delete leading and trailing silent blocks : No
Null samples used in CRC calculations : No
Used interface : Native Win32 interface for Win NT & 2000

Used output format : User Defined Encoder
Selected bitrate : 768 kBit/s
Quality : High
Add ID3 tag : No
Command line compressor : C:\Program Files\Exact Audio Copy\FLAC\FLAC.EXE
Additional command line options : -6 -V -T "ARTIST=%a" -T "TITLE=%t" -T "ALBUM=%g" -T "DATE=%y" -T "TRACKNUMBER=%n" -T "GENRE=%m" -T "COMMENT=%e" %s -o %d


TOC of the extracted CD

Track | Start | Length | Start sector | End sector
––––––––––––––––––––––––––––-
1 | 0:00.00 | 3:44.29 | 0 | 16828
2 | 3:44.29 | 2:55.26 | 16829 | 29979
3 | 6:39.55 | 3:54.28 | 29980 | 47557
4 | 10:34.08 | 4:07.64 | 47558 | 66146
5 | 14:41.72 | 4:17.63 | 66147 | 85484
6 | 18:59.60 | 4:13.56 | 85485 | 104515
7 | 23:13.41 | 3:36.19 | 104516 | 120734
8 | 26:49.60 | 3:44.45 | 120735 | 137579
9 | 30:34.30 | 3:31.38 | 137580 | 153442
10 | 34:05.68 | 3:05.73 | 153443 | 167390
11 | 37:11.66 | 3:40.44 | 167391 | 183934
12 | 40:52.35 | 4:27.18 | 183935 | 203977


Range status and errors

Selected range

Filename C:\Program Files\Exact Audio Copy\Lulu - Back On Track.wav

Peak level 99.8 %
Range quality 100.0 %
Test CRC 56582CA0
Copy CRC 56582CA0
Copy OK

No errors occurred


AccurateRip summary

Track 1 accurately ripped (confidence 1) [C938E64B]
Track 2 accurately ripped (confidence 1) [7F443BB5]
Track 3 accurately ripped (confidence 1) [6809E7B2]
Track 4 accurately ripped (confidence 1) [59A4B197]
Track 5 accurately ripped (confidence 1) [144AD664]
Track 6 accurately ripped (confidence 1) [F081DE0D]
Track 7 accurately ripped (confidence 1) [426B4106]
Track 8 accurately ripped (confidence 1) [2D3FD32B]
Track 9 accurately ripped (confidence 1) [DA8E7FC2]
Track 10 accurately ripped (confidence 1) [AFBA1134]
Track 11 accurately ripped (confidence 1) [A29CCCF3]
Track 12 accurately ripped (confidence 1) [6B9ED1A8]

All tracks accurately ripped

End of status report


Links with prefix Fla = Flac files
Links with prefix MP = MP3 files


FileSonic Link List
Megaupload Link List
OR
Rapidshare Flac part one
Rapidshare Flac part two
Rapidshare MP3


Please do not post any further mirrors