Subcategories
Tags
Language
Tags

Maneri Ensemble - Going To Church (2002) {AUM Fidelity AUM024}

Posted By: ruskaval
Maneri Ensemble - Going To Church (2002) {AUM Fidelity AUM024}

Maneri Ensemble - Going To Church (2002) {AUM Fidelity AUM024}
EAC rip (secure mode) | FLAC (tracks)+CUE+LOG -> 335 Mb | MP3 @320 -> 129 Mb
Full Artwork @ 300 dpi (jpg) -> 19 Mb | 5% repair rar
© 2002 AUM Fidelity | AUM024
Jazz / Avant-Garde Jazz / Clarinet / Viola

Following in the tradition of In Full Cry, this version of Joe and Mat Maneri's ensemble that also includes bassist Barre Phillips, Matthew Shipp on piano, drummer Randy Peterson, and Roy Campbell on trumpet is perhaps the most potent yet. A fully involved series of improvisations, Going to Church is a near-suite in three parts. Joe Maneri's conceptual microtonalism is at the root of all of these pieces, where notions of front lines and rhythm sections blur into one another as time itself is stretched beyond recognition. The addition of a second horn player and Shipp on piano is welcome in that with the increased chromatic range, the timbral extensions that are integral to the Maneris' music become almost infinite.

Phillips is an intuitive bassist: he uses the harmonic reaches to engender the improvisations with a signature dynamic; he lays back and moves forcefully inside to shore up anything that may get lost. Shipp plays less percussively here, since the instrumentation allows for his gorgeous chord voicings to be heard as a part of the overall work as opposed to their driving force. The most surprising thing here is the role of textural analyst that Mat Maneri plays. He's shaping ambiences and colors, rounding and sharpening edges rather than forming them with his father, Shipp, or Campbell. But it works, as Joe uses his clarinets or saxophones in a manner that can only be described as chanting through the middle of these three pieces. As he winds ribbon-like around the foundations of space, color, texture, and lyrical invention, the title of the album becomes clear. This is music as mystery, divinely inspired and secularly executed. It invokes the sacred in that it doesn't deem to name it or conjure it, but makes it manifest with musical presence. Everything is based on the principle of equanimity here, which creates tension and offers such a myriad of harmonically inventive possibilities as to keep the listener fully engaged for the duration. As evidenced on Going to Church, this version of the Maneri Ensemble is the most exciting yet.

Personnel:
Roy Campbell: trumpets
Joe Maneri: clarinet, alto & tenor sax
Mat Maneri: viola
Matthew Shipp: piano
Barre Phillips: bass
Randy Peterson: drums

Recorded on June 12, 2000 at Seltzer Sound, NYC.

Track Listing:
01 - Blood and Body
02 - Before the Sermon
03 - Going to Church

EAC extraction logfile from 20. April 2011, 0:26 for CD
Maneri Ensemble / Going to Church

Used drive : HP DVD Writer 1170d Adapter: 1 ID: 0
Read mode : Secure with NO C2, accurate stream, disable cache
Read offset correction : 6
Overread into Lead-In and Lead-Out : No

Used output format : C:\Program Files\FLAC\flac.exe (User Defined Encoder)
128 kBit/s
Additional command line options : -8 -V -T "ARTIST=%a" -T "TITLE=%t" -T "ALBUM=%g" -T "DATE=%y" -T "TRACKNUMBER=%n" -T "TOTALTRACKS=%x" -T "GENRE=%m" -T "ALBUM ARTIST=%v" -T "ALBUMARTIST=%v" -T "COMMENT=EAC V0.99 prebeta 4, Secure Mode,

Other options :
Fill up missing offset samples with silence : Yes
Delete leading and trailing silent blocks : No
Installed external ASPI interface


Track 1
Filename C:\Documents and Settings\maneri\01 - Blood and Body.wav

Pre-gap length 0:00:02.00

Peak level 100.0 %
Track quality 100.0 %
Test CRC 47FFAF5C
Copy CRC 47FFAF5C
Copy OK

Track 2
Filename C:\Documents and Settings\maneri\02 - Before the Sermon.wav

Pre-gap length 0:00:04.00

Peak level 100.0 %
Track quality 100.0 %
Test CRC 18E978FF
Copy CRC 18E978FF
Copy OK

Track 3
Filename C:\Documents and Settings\maneri\03 - Going to Church.wav

Pre-gap length 0:00:02.00

Peak level 100.0 %
Track quality 99.9 %
Test CRC 2E861FE0
Copy CRC 2E861FE0
Copy OK

No errors occured


End of status report


Maneri Ensemble - Going To Church (2002) {AUM Fidelity AUM024}

Maneri Ensemble - Going To Church (2002) {AUM Fidelity AUM024}



===