Subcategories

Marcel Dupre - Organ Works, Volume 6 - Ben van Oosten (2004) {MDG 316 1288-2}

Posted By: ruskaval
Marcel Dupre - Organ Works, Volume 6 - Ben van Oosten (2004) {MDG 316 1288-2}

Marcel Dupre - Organ Works, Volume 6 - Ben van Oosten (2004) {MDG 316 1288-2}
EAC rip (secure mode) | FLAC (tracks)+CUE+LOG -> 195 Mb | MP3 @320 -> 143 Mb
Full Artwork @ 600 dpi (jpg) -> 48 Mb | 5% repair rar
© 2004 MDG | MDG 316 1288-2
Classical / 20th Century / Organ

As a retired organist, I love hearing this composers beautiful music played to perfection.

Ben van Oosten (born 1955 in The Hague, Netherlands) is an organist, professor and author. Ben van Oosten gave his first organ recital in 1970 at the age of 15. He was accepted at the prestigious Sweelinck Conservatory in Amsterdam and studied the organ with Albert de Klerk and piano with Berthe Davelaar. He graduated cum laude in 1979 with a diploma in organ solo.
Marcel Dupre - Organ Works, Volume 6 - Ben van Oosten (2004) {MDG 316 1288-2}

He completed advanced studies in Paris, France, with André Isoir and Daniel Roth. Whether by geographical influence or artistic choice, he gravitated toward the French Romantic Organ school of the 19th century that had its origins in the new symphonic organs of Aristide Cavaillé-Coll. Van Oosten subsequently became one of the greatest practitioners and interpreters of organ works from that era. Among his recordings are the complete works of Charles-Marie Widor, of Louis Vierne, and of Marcel Dupré, as well as the eight sonatas of Alexandre Guilmant and organ works of Jacques-Nicolas Lemmens and Louis James Alfred Lefébure-Wély.

Besides maintaining a heavy recital schedule and an active private teaching practice, he serves as organist for the Grote Kerk (The Hague) and is a professor of music at the Rotterdam Conservatory.

Among the honors and awards he has received are the Preis der deutschen Schallplattenkritik and the Diapason d'Or. In 1998, the French government awarded him the honorary rank of Chevalier dans l'Ordre des Arts et des Lettres for his efforts in reviving the French Romantic tradition.
Marcel Dupre - Organ Works, Volume 6 - Ben van Oosten (2004) {MDG 316 1288-2}


Performers:
Ben van Oosten - organ (Casavant-Organ Saint-Jean-Baptiste, Montréal)

Track Listing
1. Offertoire I'll Est Ne, Le Divin Enfant
2. No. 59: Come Now, Saviour
3. No. 54: Praise God
4. No. 68: Out Of High Heaven
5. No. 41: In Quiet Joy
6. No. 53: Praise The Lord
7. I. E Major
8. II. G Major
9. No. 19: This Day Full Of Gladness
10. No. 63: The Child Was Born
11. No. 28: The Son Of God Is Come
12. No. 27: Praise To Thee, Jesus Christ
13. No. 75: We Christians
14. No. 14: Give Praise To Christ Jesus
15. I. Ecce Dominus Veniet
16. II. Omnipotens Sermo Tuus
17. III. Tecum Principium
18. IV. Germinavit Radix Jesse
19. V. Stella Iste
20. VI. Lumen Ad Revelationem
21. No. 69: From Heaven Above
22. No. 18: The Holy Child Shall Be My Consolation
23. No. 29: Help Me Glorify The Grace Of God
24. No. 17: The Old Year Is Passed Away
25. No. 30: Christ My Lord, God's Only-Begotten Son
26. No. 74: How Bright Shineth The Day-Star!
27. Theme
28. Variation I
29. Variation II
30. Variation III
31. Variation IV
32. Variation V
33. Variation VI
34. Variation VII
35. Variation VIII
36. Variation IX
37. Variation X
38. Presto

Exact Audio Copy V1.1 from 23. June 2015

EAC extraction logfile from 14. October 2015, 3:17

DUPRE, Marcel / Orgelwerke - Vol. 06

Used drive : HL-DT-STDVDRAM GH24NSC0 Adapter: 1 ID: 0

Read mode : Secure
Utilize accurate stream : Yes
Defeat audio cache : Yes
Make use of C2 pointers : No

Read offset correction : 6
Overread into Lead-In and Lead-Out : No
Fill up missing offset samples with silence : Yes
Delete leading and trailing silent blocks : No
Null samples used in CRC calculations : Yes
Used interface : Native Win32 interface for Win NT & 2000
Gap handling : Appended to previous track

Used output format : User Defined Encoder
Selected bitrate : 1024 kBit/s
Quality : High
Add ID3 tag : No
Command line compressor : D:\Programs\Exact Audio Copy\Flac\flac.exe
Additional command line options : -8 -V -T "ARTIST=%artist%" -T "TITLE=%title%" -T "ALBUM=%albumtitle%" -T "DATE=%year%" -T "TRACKNUMBER=%tracknr%" -T "GENRE=%genre%" -T "PERFORMER=%albuminterpret%" -T "COMPOSER=%composer%" %haslyrics%–tag-from-file=LYRICS="%lyricsfile%"%haslyrics% -T "ALBUMARTIST=%albumartist%" -T "DISCNUMBER=%cdnumber%" -T "TOTALDISCS=%totalcds%" -T "TOTALTRACKS=%numtracks%" -T "COMMENT=%comment%" %source% -o %dest%


TOC of the extracted CD

Track | Start | Length | Start sector | End sector
––––––––––––––––––––––––––––-
1 | 0:00.00 | 4:41.57 | 0 | 21131
2 | 4:41.57 | 1:04.38 | 21132 | 25969
3 | 5:46.20 | 0:42.02 | 25970 | 29121
4 | 6:28.22 | 0:48.08 | 29122 | 32729
5 | 7:16.30 | 1:48.67 | 32730 | 40896
6 | 9:05.22 | 0:53.38 | 40897 | 44909
7 | 9:58.60 | 3:56.15 | 44910 | 62624
8 | 13:55.00 | 3:19.15 | 62625 | 77564
9 | 17:14.15 | 1:15.02 | 77565 | 83191
10 | 18:29.17 | 0:46.55 | 83192 | 86696
11 | 19:15.72 | 1:17.57 | 86697 | 92528
12 | 20:33.54 | 0:59.11 | 92529 | 96964
13 | 21:32.65 | 1:35.10 | 96965 | 104099
14 | 23:08.00 | 1:07.02 | 104100 | 109126
15 | 24:15.02 | 2:59.33 | 109127 | 122584
16 | 27:14.35 | 3:32.65 | 122585 | 138549
17 | 30:47.25 | 2:37.47 | 138550 | 150371
18 | 33:24.72 | 1:57.10 | 150372 | 159156
19 | 35:22.07 | 2:05.73 | 159157 | 168604
20 | 37:28.05 | 2:35.52 | 168605 | 180281
21 | 40:03.57 | 1:09.43 | 180282 | 185499
22 | 41:13.25 | 1:01.25 | 185500 | 190099
23 | 42:14.50 | 1:05.52 | 190100 | 195026
24 | 43:20.27 | 0:56.43 | 195027 | 199269
25 | 44:16.70 | 0:47.62 | 199270 | 202856
26 | 45:04.57 | 1:12.33 | 202857 | 208289
27 | 46:17.15 | 0:59.19 | 208290 | 212733
28 | 47:16.34 | 0:55.63 | 212734 | 216921
29 | 48:12.22 | 0:39.33 | 216922 | 219879
30 | 48:51.55 | 1:34.15 | 219880 | 226944
31 | 50:25.70 | 0:30.57 | 226945 | 229251
32 | 50:56.52 | 0:56.25 | 229252 | 233476
33 | 51:53.02 | 1:02.38 | 233477 | 238164
34 | 52:55.40 | 0:43.30 | 238165 | 241419
35 | 53:38.70 | 1:50.07 | 241420 | 249676
36 | 55:29.02 | 0:45.65 | 249677 | 253116
37 | 56:14.67 | 1:42.03 | 253117 | 260769
38 | 57:56.70 | 1:22.30 | 260770 | 266949


Track 1

Filename D:\Music\01 - Offertoire - ''Il est né, le divin enfant''.wav

Pre-gap length 0:00:02.00

Peak level 81.1 %
Extraction speed 4.4 X
Track quality 100.0 %
Test CRC 76217CE5
Copy CRC 76217CE5
Cannot be verified as accurate (confidence 3) [FEDB18A8], AccurateRip returned [7104BB15] (AR v2)
Copy OK

Track 2

Filename D:\Music\02 - 79 Chorales, Op.28 - N°59 - Maintenant que vienne le Sauveur des Païens.wav

Pre-gap length 0:00:04.27

Peak level 5.8 %
Extraction speed 3.5 X
Track quality 100.0 %
Test CRC BC72E104
Copy CRC BC72E104
Cannot be verified as accurate (confidence 3) [7CEA257E], AccurateRip returned [C3A40BAB] (AR v2)
Copy OK

Track 3

Filename D:\Music\03 - 79 Chorales, Op.28 - N°54 - Louez Dieu, o Chrétiens, tous ensemble.wav

Peak level 23.6 %
Extraction speed 2.9 X
Track quality 100.0 %
Test CRC 74E6AFAA
Copy CRC 74E6AFAA
Cannot be verified as accurate (confidence 3) [CC8F27BB], AccurateRip returned [0FC761D4] (AR v2)
Copy OK

Track 4

Filename D:\Music\04 - 79 Chorales, Op.28 - N°68 - Du haut du ciel je viens ici.wav

Pre-gap length 0:00:02.32

Peak level 8.6 %
Extraction speed 1.9 X
Track quality 99.7 %
Test CRC CC4ECE71
Copy CRC CC4ECE71
Cannot be verified as accurate (confidence 3) [ADC905A3], AccurateRip returned [162A7F9B] (AR v2)
Copy OK

Track 5

Filename D:\Music\05 - 79 Chorales, Op.28 - N°41 - Dans une douce joie.wav

Pre-gap length 0:00:01.40

Peak level 5.9 %
Extraction speed 3.1 X
Track quality 99.9 %
Test CRC C2550D9E
Copy CRC C2550D9E
Cannot be verified as accurate (confidence 3) [575850BD], AccurateRip returned [065E24E3] (AR v2)
Copy OK

Track 6

Filename D:\Music\06 - 79 Chorales, Op.28 - N°53 - Loué soit le Dieu Tout-Puissant.wav

Pre-gap length 0:00:02.07

Peak level 72.3 %
Extraction speed 3.5 X
Track quality 100.0 %
Test CRC 8906E41F
Copy CRC 8906E41F
Cannot be verified as accurate (confidence 3) [60746BD1], AccurateRip returned [DED30E86] (AR v2)
Copy OK

Track 7

Filename D:\Music\07 - Annonciation, Op.56 - 1. Mi-majeur.wav

Pre-gap length 0:00:07.23

Peak level 8.2 %
Extraction speed 5.4 X
Track quality 100.0 %
Test CRC 1A51AEAC
Copy CRC 1A51AEAC
Cannot be verified as accurate (confidence 3) [1B917FA2], AccurateRip returned [54D6638A] (AR v2)
Copy OK

Track 8

Filename D:\Music\08 - Annonciation, Op.56 - 2. Sol-majeur.wav

Pre-gap length 0:00:01.58

Peak level 11.3 %
Extraction speed 4.6 X
Track quality 99.9 %
Test CRC FE290743
Copy CRC FE290743
Cannot be verified as accurate (confidence 3) [12530B1D], AccurateRip returned [B80BF1F1] (AR v2)
Copy OK

Track 9

Filename D:\Music\09 - 79 Chorales, Op.28 - N°19 - Le jour qui est plein de joie.wav

Pre-gap length 0:00:04.50

Peak level 58.6 %
Extraction speed 3.1 X
Track quality 99.8 %
Test CRC 91FFC688
Copy CRC 91FFC688
Cannot be verified as accurate (confidence 3) [531F3811], AccurateRip returned [CD763CD5] (AR v2)
Copy OK

Track 10

Filename D:\Music\10 - 79 Chorales, Op.28 - N°63 - L'Enfant est né à Bethléem.wav

Pre-gap length 0:00:04.05

Peak level 7.3 %
Extraction speed 3.9 X
Track quality 100.0 %
Test CRC 567C63EC
Copy CRC 567C63EC
Cannot be verified as accurate (confidence 3) [F752C3BC], AccurateRip returned [AC7F3D07] (AR v2)
Copy OK

Track 11

Filename D:\Music\11 - 79 Chorales, Op.28 - N°28 - Le fils de Dieu est venu.wav

Pre-gap length 0:00:02.22

Peak level 10.9 %
Extraction speed 4.8 X
Track quality 100.0 %
Test CRC 129C925E
Copy CRC 129C925E
Cannot be verified as accurate (confidence 3) [66E72A0B], AccurateRip returned [BFFC2CAD] (AR v2)
Copy OK

Track 12

Filename D:\Music\12 - 79 Chorales, Op.28 - N°27 - Sois loué, Jésus Christ.wav

Pre-gap length 0:00:03.04

Peak level 11.5 %
Extraction speed 4.5 X
Track quality 100.0 %
Test CRC EAF4FE4F
Copy CRC EAF4FE4F
Cannot be verified as accurate (confidence 3) [DA18D985], AccurateRip returned [6CDF82F0] (AR v2)
Copy OK

Track 13

Filename D:\Music\13 - 79 Chorales, Op.28 - N°75 - Nous Chrétiens.wav

Pre-gap length 0:00:01.55

Peak level 7.9 %
Extraction speed 5.2 X
Track quality 100.0 %
Test CRC 6146904B
Copy CRC 6146904B
Cannot be verified as accurate (confidence 3) [22DAD42B], AccurateRip returned [7DF83E7F] (AR v2)
Copy OK

Track 14

Filename D:\Music\14 - 79 Chorales, Op.28 - N°14 - Nous devons louer Christ.wav

Pre-gap length 0:00:04.10

Peak level 41.2 %
Extraction speed 3.1 X
Track quality 99.8 %
Test CRC BFDB45DB
Copy CRC BFDB45DB
Cannot be verified as accurate (confidence 3) [77C00222], AccurateRip returned [57ED69A3] (AR v2)
Copy OK

Track 15

Filename D:\Music\15 - Six Antiennes pour le Temps de Noël, Op.48 - 1. Ecce Dominus veniet.wav

Pre-gap length 0:00:06.67

Peak level 17.7 %
Extraction speed 6.4 X
Track quality 100.0 %
Test CRC 7B48E91E
Copy CRC 7B48E91E
Cannot be verified as accurate (confidence 3) [1F3AF023], AccurateRip returned [562C9E99] (AR v2)
Copy OK

Track 16

Filename D:\Music\16 - Six Antiennes pour le Temps de Noël, Op.48 - 2. Omnipotens sermo tuus.wav

Pre-gap length 0:00:04.35

Peak level 10.7 %
Extraction speed 6.8 X
Track quality 100.0 %
Test CRC DE3050F3
Copy CRC DE3050F3
Cannot be verified as accurate (confidence 3) [14E76CBB], AccurateRip returned [BB6C38F4] (AR v2)
Copy OK

Track 17

Filename D:\Music\17 - Six Antiennes pour le Temps de Noël, Op.48 - 3. Tecum principium.wav

Pre-gap length 0:00:01.13

Peak level 6.3 %
Extraction speed 6.7 X
Track quality 100.0 %
Test CRC BC3F0376
Copy CRC BC3F0376
Cannot be verified as accurate (confidence 3) [51675F4E], AccurateRip returned [DAB1B94B] (AR v2)
Copy OK

Track 18

Filename D:\Music\18 - Six Antiennes pour le Temps de Noël, Op.48 - 4. Germinavit radix Jesse.wav

Pre-gap length 0:00:02.00

Peak level 29.9 %
Extraction speed 6.3 X
Track quality 100.0 %
Test CRC 230166B2
Copy CRC 230166B2
Cannot be verified as accurate (confidence 3) [CABDBD78], AccurateRip returned [0E8CAFFB] (AR v2)
Copy OK

Track 19

Filename D:\Music\19 - Six Antiennes pour le Temps de Noël, Op.48 - 5. Stella iste.wav

Pre-gap length 0:00:01.42

Peak level 12.0 %
Extraction speed 6.6 X
Track quality 100.0 %
Test CRC 63DCD5DD
Copy CRC 63DCD5DD
Cannot be verified as accurate (confidence 3) [ACD2DFFC], AccurateRip returned [22F4CAF9] (AR v2)
Copy OK

Track 20

Filename D:\Music\20 - Six Antiennes pour le Temps de Noël, Op.48 - 6. Lumen ad revelationem.wav

Pre-gap length 0:00:01.43

Peak level 91.2 %
Extraction speed 5.4 X
Track quality 99.9 %
Test CRC E957EE29
Copy CRC E957EE29
Cannot be verified as accurate (confidence 3) [06354EC1], AccurateRip returned [916B8B42] (AR v2)
Copy OK

Track 21

Filename D:\Music\21 - 79 Chorales, Op.28 - N°69 - Du haut du ciel est venue une légion d'anges.wav

Pre-gap length 0:00:05.23

Peak level 9.2 %
Extraction speed 5.7 X
Track quality 100.0 %
Test CRC DD63F6D3
Copy CRC DD63F6D3
Cannot be verified as accurate (confidence 3) [92E00ED2], AccurateRip returned [07F4F1E2] (AR v2)
Copy OK

Track 22

Filename D:\Music\22 - 79 Chorales, Op.28 - N°18 - L'Enfant Jésus doit être ma consolation.wav

Pre-gap length 0:00:03.25

Peak level 8.6 %
Extraction speed 5.4 X
Track quality 100.0 %
Test CRC 00E478EA
Copy CRC 00E478EA
Cannot be verified as accurate (confidence 3) [0D25B47E], AccurateRip returned [D0FDF48C] (AR v2)
Copy OK

Track 23

Filename D:\Music\23 - 79 Chorales, Op.28 - N°29 - Aidez-moi à glorifier la bonté de Dieu.wav

Pre-gap length 0:00:02.65

Peak level 10.6 %
Extraction speed 5.7 X
Track quality 100.0 %
Test CRC 055F3E94
Copy CRC 055F3E94
Cannot be verified as accurate (confidence 3) [B00D1E74], AccurateRip returned [9D6ADE6E] (AR v2)
Copy OK

Track 24

Filename D:\Music\24 - 79 Chorales, Op.28 - N°17 - La vieille année s'en est allée.wav

Pre-gap length 0:00:02.55

Peak level 5.9 %
Extraction speed 5.4 X
Track quality 100.0 %
Test CRC E4F50180
Copy CRC E4F50180
Cannot be verified as accurate (confidence 3) [37E957D4], AccurateRip returned [72A6BA07] (AR v2)
Copy OK

Track 25

Filename D:\Music\25 - 79 Chorales, Op.28 - N°30 - Jésus Christ, Fils unique de Dieu.wav

Pre-gap length 0:00:03.10

Peak level 15.6 %
Extraction speed 4.9 X
Track quality 100.0 %
Test CRC 246523EA
Copy CRC 246523EA
Cannot be verified as accurate (confidence 3) [DC7B9B04], AccurateRip returned [B27675EA] (AR v2)
Copy OK

Track 26

Filename D:\Music\26 - 79 Chorales, Op.28 - N°74 - Avec quelle beauté brille l'étoile du matin.wav

Pre-gap length 0:00:02.62

Peak level 46.3 %
Extraction speed 6.0 X
Track quality 100.0 %
Test CRC CFA5F8C0
Copy CRC CFA5F8C0
Cannot be verified as accurate (confidence 3) [B5BBFB4D], AccurateRip returned [0AECFEA7] (AR v2)
Copy OK

Track 27

Filename D:\Music\27 - Variations sur un Noël, Op.20 - Thème.wav

Pre-gap length 0:00:06.60

Peak level 3.0 %
Extraction speed 5.7 X
Track quality 100.0 %
Test CRC C7806DAA
Copy CRC C7806DAA
Cannot be verified as accurate (confidence 3) [2A76ADDE], AccurateRip returned [8DAC02FB] (AR v2)
Copy OK

Track 28

Filename D:\Music\28 - Variations sur un Noël, Op.20 - Variation 01.wav

Peak level 11.7 %
Extraction speed 5.5 X
Track quality 100.0 %
Test CRC 8154922D
Copy CRC 8154922D
Cannot be verified as accurate (confidence 3) [27C86C61], AccurateRip returned [C9FC9F2B] (AR v2)
Copy OK

Track 29

Filename D:\Music\29 - Variations sur un Noël, Op.20 - Variation 02.wav

Peak level 18.8 %
Extraction speed 4.8 X
Track quality 100.0 %
Test CRC FE0A18B1
Copy CRC FE0A18B1
Cannot be verified as accurate (confidence 3) [0671B510], AccurateRip returned [0B839617] (AR v2)
Copy OK

Track 30

Filename D:\Music\30 - Variations sur un Noël, Op.20 - Variation 03.wav

Peak level 9.8 %
Extraction speed 6.7 X
Track quality 100.0 %
Test CRC 261CBB56
Copy CRC 261CBB56
Cannot be verified as accurate (confidence 3) [FD80316F], AccurateRip returned [5EE52D3C] (AR v2)
Copy OK

Track 31

Filename D:\Music\31 - Variations sur un Noël, Op.20 - Variation 04.wav

Peak level 8.0 %
Extraction speed 4.3 X
Track quality 100.0 %
Test CRC 09DE992D
Copy CRC 09DE992D
Cannot be verified as accurate (confidence 3) [ECA2DCE9], AccurateRip returned [B543B0C2] (AR v2)
Copy OK

Track 32

Filename D:\Music\32 - Variations sur un Noël, Op.20 - Variation 05.wav

Peak level 9.2 %
Extraction speed 5.7 X
Track quality 100.0 %
Test CRC 8D883E12
Copy CRC 8D883E12
Cannot be verified as accurate (confidence 3) [AEC7BB6C], AccurateRip returned [92F50A12] (AR v2)
Copy OK

Track 33

Filename D:\Music\33 - Variations sur un Noël, Op.20 - Variation 06.wav

Peak level 6.6 %
Extraction speed 6.0 X
Track quality 100.0 %
Test CRC F2478DC2
Copy CRC F2478DC2
Cannot be verified as accurate (confidence 3) [573320A5], AccurateRip returned [0DCD7AE2] (AR v2)
Copy OK

Track 34

Filename D:\Music\34 - Variations sur un Noël, Op.20 - Variation 07.wav

Peak level 7.0 %
Extraction speed 5.2 X
Track quality 100.0 %
Test CRC 020CF328
Copy CRC 020CF328
Cannot be verified as accurate (confidence 3) [C8852089], AccurateRip returned [ACBD6E50] (AR v2)
Copy OK

Track 35

Filename D:\Music\35 - Variations sur un Noël, Op.20 - Variation 08.wav

Peak level 8.5 %
Extraction speed 7.3 X
Track quality 100.0 %
Test CRC F0978497
Copy CRC F0978497
Cannot be verified as accurate (confidence 3) [709603E5], AccurateRip returned [4DBF3E4B] (AR v2)
Copy OK

Track 36

Filename D:\Music\36 - Variations sur un Noël, Op.20 - Variation 09.wav

Peak level 12.1 %
Extraction speed 5.5 X
Track quality 100.0 %
Test CRC 9C515BE2
Copy CRC 9C515BE2
Cannot be verified as accurate (confidence 3) [EAB23F11], AccurateRip returned [77B33F43] (AR v2)
Copy OK

Track 37

Filename D:\Music\37 - Variations sur un Noël, Op.20 - Variation 10.wav

Peak level 63.3 %
Extraction speed 7.3 X
Track quality 100.0 %
Test CRC 38892AFB
Copy CRC 38892AFB
Cannot be verified as accurate (confidence 3) [ECA25781], AccurateRip returned [24E74AB3] (AR v2)
Copy OK

Track 38

Filename D:\Music\38 - Variations sur un Noël, Op.20 - Presto.wav

Peak level 99.9 %
Extraction speed 6.8 X
Track quality 100.0 %
Test CRC D808BF40
Copy CRC D808BF40
Cannot be verified as accurate (confidence 3) [9EB6FA50], AccurateRip returned [C2EBD073] (AR v2)
Copy OK


No tracks could be verified as accurate
You may have a different pressing from the one(s) in the database

No errors occurred

End of status report

–– CUETools DB Plugin V2.1.6

[CTDB TOCID: cV8hujS.da32TpeG162xJvdQ8Mk-] found
Submit result: cV8hujS.da32TpeG162xJvdQ8Mk- has been confirmed
Track | CTDB Status
1 | (3/3) Accurately ripped
2 | (3/3) Accurately ripped
3 | (3/3) Accurately ripped
4 | (3/3) Accurately ripped
5 | (3/3) Accurately ripped
6 | (3/3) Accurately ripped
7 | (3/3) Accurately ripped
8 | (3/3) Accurately ripped
9 | (3/3) Accurately ripped
10 | (3/3) Accurately ripped
11 | (3/3) Accurately ripped
12 | (3/3) Accurately ripped
13 | (3/3) Accurately ripped
14 | (3/3) Accurately ripped
15 | (3/3) Accurately ripped
16 | (3/3) Accurately ripped
17 | (3/3) Accurately ripped
18 | (3/3) Accurately ripped
19 | (3/3) Accurately ripped
20 | (3/3) Accurately ripped
21 | (3/3) Accurately ripped
22 | (3/3) Accurately ripped
23 | (3/3) Accurately ripped
24 | (3/3) Accurately ripped
25 | (3/3) Accurately ripped
26 | (3/3) Accurately ripped
27 | (3/3) Accurately ripped
28 | (3/3) Accurately ripped
29 | (3/3) Accurately ripped
30 | (3/3) Accurately ripped
31 | (3/3) Accurately ripped
32 | (3/3) Accurately ripped
33 | (3/3) Accurately ripped
34 | (3/3) Accurately ripped
35 | (3/3) Accurately ripped
36 | (3/3) Accurately ripped
37 | (3/3) Accurately ripped
38 | (3/3) Accurately ripped


==== Log checksum BA433E6F39B2C17D0A866633144E547A4E2A7F598468CD8BBE077288C1D00A16 ====


Marcel Dupre - Organ Works, Volume 6 - Ben van Oosten (2004) {MDG 316 1288-2}


see more Marcel Dupre…

NEXT - Marcel Dupre - Organ Works, Volume 7 ~ Volume 12 on the way…


===