Tags
Language
Tags
May 2024
Su Mo Tu We Th Fr Sa
28 29 30 1 2 3 4
5 6 7 8 9 10 11
12 13 14 15 16 17 18
19 20 21 22 23 24 25
26 27 28 29 30 31 1

Marillion - Live At The Forum 11 December 2014 (2014) {2CD Set Racket Records XMAS111214CD}

Posted By: ruskaval
Marillion - Live At The Forum 11 December 2014 (2014) {2CD Set Racket Records XMAS111214CD}

Marillion - Live At The Forum 11 December 2014 (2014) {2CD Set Racket Records XMAS111214CD}
EAC rip (secure mode) | FLAC (tracks)+CUE+LOG -> 907 Mb | MP3 @320 -> 304 Mb | Artwork | 5% repair rar
© 2014 Racket Records | XMAS111214CD
Rock / Progressive Rock

Recorded and released live on the night at the London Forum, 11 December 2014.

Musicians:
Steve Hogarth ……… Vocals, Keyboards, Guitars
Mark Kelly ………… Keyboards
Ian Mosley ………… Drums
Steve Rothery ……… Guitars
Pete Trewavas ……… Bass

Disc 1:
1. Gazpacho (7:17)
2. The Uninvited Guest (4:15)
3. Power (7:18)
4. No One Can (6:01)
5. Warm Wet Circles (10:37)
6. Woke Up (6:41)
7. Trap The Spark (6:25)
8. Easter (7:19)
9. Sounds That Can't Be Made (9:14)

Marillion - Live At The Forum 11 December 2014 (2014) {2CD Set Racket Records XMAS111214CD}


Disc 2:
1. Sounds That Can't Be Made (Reprise With The Audience) (1:53)
2. Seasons End (8:16)
3. Man Of A Thousand Faces (8:26)
4. King (10:23)
5. The Christmas Song (4:18)
6. Happy Xmas (War Is Over) (4:52)
7. Slainte Mhath (7:11)
8. The Release (4:49)
9. Garden Party (8:06)

Marillion - Live At The Forum 11 December 2014 (2014) {2CD Set Racket Records XMAS111214CD}


Exact Audio Copy V1.0 beta 3 from 29. August 2011

EAC extraction logfile from 21. December 2014, 16:16

Marillion / Live At The Forum 11 December 2014 (CD1)

Used drive : ASUS DRW-1814BLT Adapter: 0 ID: 0

Read mode : Secure
Utilize accurate stream : Yes
Defeat audio cache : Yes
Make use of C2 pointers : No

Read offset correction : 6
Overread into Lead-In and Lead-Out : No
Fill up missing offset samples with silence : Yes
Delete leading and trailing silent blocks : No
Null samples used in CRC calculations : Yes
Used interface : Native Win32 interface for Win NT & 2000
Gap handling : Appended to previous track

Used output format : User Defined Encoder
Selected bitrate : 768 kBit/s
Quality : High
Add ID3 tag : No
Command line compressor : C:\Program Files (x86)\Exact Audio Copy\Flac\flac.exe
Additional command line options : -8 -V -T "ARTIST=%artist%" -T "TITLE=%title%" -T "ALBUM=%albumtitle%" -T "DATE=%year%" -T "TRACKNUMBER=%tracknr%" -T "TOTALTRACKS=%numtracks%" -T "GENRE=%genre%" -T "ALBUMARTIST=%albumartist%" -T "ALBUM ARTIST=%albumartist%" -T "COMMENT=EAC Secure Mode, Test & Copy, AccurateRip, FLAC -8" %source%


TOC of the extracted CD

Track | Start | Length | Start sector | End sector
––––––––––––––––––––––––––––-
1 | 0:00.00 | 7:17.21 | 0 | 32795
2 | 7:17.21 | 4:15.30 | 32796 | 51950
3 | 11:32.51 | 7:18.34 | 51951 | 84834
4 | 18:51.10 | 6:00.65 | 84835 | 111899
5 | 24:52.00 | 10:37.26 | 111900 | 159700
6 | 35:29.26 | 6:40.38 | 159701 | 189738
7 | 42:09.64 | 6:24.69 | 189739 | 218607
8 | 48:34.58 | 7:19.05 | 218608 | 251537
9 | 55:53.63 | 9:14.28 | 251538 | 293115


Track 1

Filename E:\Bobby29\Rips\Marillion - Live At The Forum 11 December 2014 (2014) [FLAC]\Disc 1of2\01 - Gazpacho.wav

Pre-gap length 0:00:02.00

Peak level 100.0 %
Extraction speed 3.2 X
Track quality 100.0 %
Test CRC 341CC676
Copy CRC 341CC676
Track not present in AccurateRip database
Copy OK

Track 2

Filename E:\Bobby29\Rips\Marillion - Live At The Forum 11 December 2014 (2014) [FLAC]\Disc 1of2\02 - The Uninvited Guest.wav

Peak level 100.0 %
Extraction speed 3.4 X
Track quality 100.0 %
Test CRC AA71A1CA
Copy CRC AA71A1CA
Track not present in AccurateRip database
Copy OK

Track 3

Filename E:\Bobby29\Rips\Marillion - Live At The Forum 11 December 2014 (2014) [FLAC]\Disc 1of2\03 - Power.wav

Peak level 100.0 %
Extraction speed 4.0 X
Track quality 100.0 %
Test CRC 2B9E6758
Copy CRC 2B9E6758
Track not present in AccurateRip database
Copy OK

Track 4

Filename E:\Bobby29\Rips\Marillion - Live At The Forum 11 December 2014 (2014) [FLAC]\Disc 1of2\04 - No One Can.wav

Peak level 100.0 %
Extraction speed 2.6 X
Track quality 99.9 %
Test CRC 96C9E389
Copy CRC 96C9E389
Track not present in AccurateRip database
Copy OK

Track 5

Filename E:\Bobby29\Rips\Marillion - Live At The Forum 11 December 2014 (2014) [FLAC]\Disc 1of2\05 - Warm Wet Circles.wav

Peak level 100.0 %
Extraction speed 4.9 X
Track quality 100.0 %
Test CRC 399C9ABB
Copy CRC 399C9ABB
Track not present in AccurateRip database
Copy OK

Track 6

Filename E:\Bobby29\Rips\Marillion - Live At The Forum 11 December 2014 (2014) [FLAC]\Disc 1of2\06 - Woke Up.wav

Peak level 100.0 %
Extraction speed 5.1 X
Track quality 100.0 %
Test CRC EC302A4E
Copy CRC EC302A4E
Track not present in AccurateRip database
Copy OK

Track 7

Filename E:\Bobby29\Rips\Marillion - Live At The Forum 11 December 2014 (2014) [FLAC]\Disc 1of2\07 - Trap The Spark.wav

Peak level 100.0 %
Extraction speed 5.3 X
Track quality 100.0 %
Test CRC B8502E8E
Copy CRC B8502E8E
Track not present in AccurateRip database
Copy OK

Track 8

Filename E:\Bobby29\Rips\Marillion - Live At The Forum 11 December 2014 (2014) [FLAC]\Disc 1of2\08 - Easter.wav

Peak level 100.0 %
Extraction speed 5.7 X
Track quality 100.0 %
Test CRC B89F0A15
Copy CRC B89F0A15
Track not present in AccurateRip database
Copy OK

Track 9

Filename E:\Bobby29\Rips\Marillion - Live At The Forum 11 December 2014 (2014) [FLAC]\Disc 1of2\09 - Sounds That Can't Be Made.wav

Peak level 100.0 %
Extraction speed 6.1 X
Track quality 100.0 %
Test CRC E5C2EE43
Copy CRC E5C2EE43
Track not present in AccurateRip database
Copy OK


None of the tracks are present in the AccurateRip database

No errors occurred

End of status report

==== Log checksum 144C5186974117465EA2C19B2DDA10398A22F353D148F8BDCF4502022CF0A8B5 ====
Exact Audio Copy V1.0 beta 3 from 29. August 2011

EAC extraction logfile from 21. December 2014, 16:41

Marillion / Live At The Forum 11 December 2014 (CD2)

Used drive : ASUS DRW-1814BLT Adapter: 0 ID: 0

Read mode : Secure
Utilize accurate stream : Yes
Defeat audio cache : Yes
Make use of C2 pointers : No

Read offset correction : 6
Overread into Lead-In and Lead-Out : No
Fill up missing offset samples with silence : Yes
Delete leading and trailing silent blocks : No
Null samples used in CRC calculations : Yes
Used interface : Native Win32 interface for Win NT & 2000
Gap handling : Appended to previous track

Used output format : User Defined Encoder
Selected bitrate : 768 kBit/s
Quality : High
Add ID3 tag : No
Command line compressor : C:\Program Files (x86)\Exact Audio Copy\Flac\flac.exe
Additional command line options : -8 -V -T "ARTIST=%artist%" -T "TITLE=%title%" -T "ALBUM=%albumtitle%" -T "DATE=%year%" -T "TRACKNUMBER=%tracknr%" -T "TOTALTRACKS=%numtracks%" -T "GENRE=%genre%" -T "ALBUMARTIST=%albumartist%" -T "ALBUM ARTIST=%albumartist%" -T "COMMENT=EAC Secure Mode, Test & Copy, AccurateRip, FLAC -8" %source%


TOC of the extracted CD

Track | Start | Length | Start sector | End sector
––––––––––––––––––––––––––––-
1 | 0:00.00 | 1:52.46 | 0 | 8445
2 | 1:52.46 | 8:15.66 | 8446 | 45636
3 | 10:08.37 | 8:26.32 | 45637 | 83618
4 | 18:34.69 | 10:22.48 | 83619 | 130316
5 | 28:57.42 | 4:18.37 | 130317 | 149703
6 | 33:16.04 | 4:51.74 | 149704 | 171602
7 | 38:08.03 | 7:10.44 | 171603 | 203896
8 | 45:18.47 | 4:49.04 | 203897 | 225575
9 | 50:07.51 | 8:06.23 | 225576 | 262048


Track 1

Filename E:\Bobby29\Rips\Marillion - Live At The Forum 11 December 2014 (2014) [FLAC]\Disc 2of2\01 - Sounds That Can't Be Made (Reprise With The Audience).wav

Pre-gap length 0:00:02.00

Peak level 95.0 %
Extraction speed 4.2 X
Track quality 100.0 %
Test CRC 60FAE0C3
Copy CRC 60FAE0C3
Track not present in AccurateRip database
Copy OK

Track 2

Filename E:\Bobby29\Rips\Marillion - Live At The Forum 11 December 2014 (2014) [FLAC]\Disc 2of2\02 - Seasons End.wav

Peak level 100.0 %
Extraction speed 5.7 X
Track quality 100.0 %
Test CRC 8B617BC4
Copy CRC 8B617BC4
Track not present in AccurateRip database
Copy OK

Track 3

Filename E:\Bobby29\Rips\Marillion - Live At The Forum 11 December 2014 (2014) [FLAC]\Disc 2of2\03 - Man Of A Thousand Faces.wav

Peak level 100.0 %
Extraction speed 6.5 X
Track quality 100.0 %
Test CRC 2D27DFDE
Copy CRC 2D27DFDE
Track not present in AccurateRip database
Copy OK

Track 4

Filename E:\Bobby29\Rips\Marillion - Live At The Forum 11 December 2014 (2014) [FLAC]\Disc 2of2\04 - King.wav

Peak level 100.0 %
Extraction speed 7.4 X
Track quality 100.0 %
Test CRC 152D3B28
Copy CRC 152D3B28
Track not present in AccurateRip database
Copy OK

Track 5

Filename E:\Bobby29\Rips\Marillion - Live At The Forum 11 December 2014 (2014) [FLAC]\Disc 2of2\05 - The Christmas Song.wav

Peak level 92.2 %
Extraction speed 7.4 X
Track quality 100.0 %
Test CRC E87F1EAA
Copy CRC E87F1EAA
Track not present in AccurateRip database
Copy OK

Track 6

Filename E:\Bobby29\Rips\Marillion - Live At The Forum 11 December 2014 (2014) [FLAC]\Disc 2of2\06 - Happy Xmas (War Is Over).wav

Peak level 100.0 %
Extraction speed 7.8 X
Track quality 100.0 %
Test CRC 0F7BF89E
Copy CRC 0F7BF89E
Track not present in AccurateRip database
Copy OK

Track 7

Filename E:\Bobby29\Rips\Marillion - Live At The Forum 11 December 2014 (2014) [FLAC]\Disc 2of2\07 - Slainte Mhath.wav

Peak level 100.0 %
Extraction speed 6.4 X
Track quality 99.9 %
Test CRC 3A8DB409
Copy CRC 3A8DB409
Track not present in AccurateRip database
Copy OK

Track 8

Filename E:\Bobby29\Rips\Marillion - Live At The Forum 11 December 2014 (2014) [FLAC]\Disc 2of2\08 - The Release.wav

Peak level 100.0 %
Extraction speed 6.9 X
Track quality 100.0 %
Test CRC D88C1387
Copy CRC D88C1387
Track not present in AccurateRip database
Copy OK

Track 9

Filename E:\Bobby29\Rips\Marillion - Live At The Forum 11 December 2014 (2014) [FLAC]\Disc 2of2\09 - Garden Party.wav

Peak level 100.0 %
Extraction speed 9.2 X
Track quality 100.0 %
Test CRC BBFE8E94
Copy CRC BBFE8E94
Track not present in AccurateRip database
Copy OK


None of the tracks are present in the AccurateRip database

No errors occurred

End of status report

==== Log checksum 9D0F198192B2AA7BB81540A95D1B3DF1CC0EE420F7581688E3F991B4CBE33A71 ====


Marillion - Live At The Forum 11 December 2014 (2014) {2CD Set Racket Records XMAS111214CD}



===