Subcategories

Max Roach - M'Boom (1979) [Remastered 1994]

Posted By: Bezz
Max Roach - M'Boom (1979) [Remastered 1994]

Max Roach - M'Boom (1979) [Remastered 1994]
EAC rip | APE+CUE+LOG | Scans | 283Mb(Incl. Recovery)
Genre ~ Modern Creative, Progressive Jazz, World Fusion | Label ~ Columbia Records

In 1979 Max Roach founded M'Boom, a group consisting of eight percussionists. Their debut recording (which has been reissued on this Columbia CD) is far from being a monotonous drum battle. In fact, through the utilization of a wide range of instruments that include chimes, timbales, marimba, vibes, xylophone, tympani, various bells and steel drums, there are quite a lot of melodies to be heard during these nine performances (which are all group originals other than Thelonious Monk's "Epistrophy"). This is a particularly colorful set that is easily recommended not only to jazz and percussion fans but to followers of World music. ~ AllMusic
Tracklist

01. Onomatopoiea (5:21)
02. Twinkle Toes (3:36)
03. Caravanserai (4:04)
04. January V (3:27)
05. The Glorious Monster (6:49)
06. Rumble in the Jungle (7:18)
07. Morning/Midday (6:53)
08. Epistrophy (4:21)
09. Kujichaglia (6:27)

Exact Audio Copy V0.99 prebeta 1 from 25. May 2007

EAC extraction logfile from 18. August 2007, 0:40

Max Roach / M'Boom

Used drive : PIONEER DVD-RW DVR-108 Adapter: 0 ID: 2

Read mode : Secure
Utilize accurate stream : Yes
Defeat audio cache : Yes
Make use of C2 pointers : No

Read offset correction : 48
Overread into Lead-In and Lead-Out : Yes
Fill up missing offset samples with silence : Yes
Delete leading and trailing silent blocks : No
Used interface : Installed external ASPI interface

Used output format : Monkey's Audio Lossless Encoder
Selected bitrate : Normal Lossless Compression
Quality : High
Add ID3 tag : Yes
Command line compressor : C:\Program Files\Monkey's Audio\MAC.exe

TOC of the extracted CD

Track | Start | Length | Start sector | End sector
––––––––––––––––––––––––––––-
1 | 0:00.00 | 5:20.45 | 0 | 24044
2 | 5:20.45 | 3:36.02 | 24045 | 40246
3 | 8:56.47 | 4:04.35 | 40247 | 58581
4 | 13:01.07 | 3:26.45 | 58582 | 74076
5 | 16:27.52 | 6:49.13 | 74077 | 104764
6 | 23:16.65 | 7:18.12 | 104765 | 137626
7 | 30:35.02 | 6:52.70 | 137627 | 168596
8 | 37:27.72 | 4:21.05 | 168597 | 188176
9 | 41:49.02 | 6:27.00 | 188177 | 217201

Range status and errors

Selected range

Filename C:\Documents and Settings\Mius\My Documents\My Music\Max Roach - M'Boom\Max Roach - M'Boom.wav

Peak level 100.0 %
Range quality 100.0 %
Copy CRC 19DB9185
Copy OK

No errors occurred

End of status report

Max Roach - M'Boom (1979) [Remastered 1994]

Max Roach - M'Boom (1979) [Remastered 1994]

Special thanks to yinlok and jazzio!

Welcome to my blog for more wonderful music

PLEASE DO NOT PROVIDE MIRROR LINKS!