Tags
Language
Tags
June 2024
Su Mo Tu We Th Fr Sa
26 27 28 29 30 31 1
2 3 4 5 6 7 8
9 10 11 12 13 14 15
16 17 18 19 20 21 22
23 24 25 26 27 28 29
30 1 2 3 4 5 6

McCoy Tyner - Mosaic Select 25 [3CD Set] (2007) {Mosaic Records}

Posted By: ruskaval
McCoy Tyner - Mosaic Select 25 [3CD Set] (2007) {Mosaic Records}

McCoy Tyner - Mosaic Select 25 [3CD Set] (2007) {Mosaic Records}
EAC rip (secure mode) | FLAC (tracks)+CUE+LOG -> 1.29 Gb | MP3 @320 -> 500 Mb
Full Artwork @ 300 dpi (png) -> 94 Mb | 5% repair rar
© 2007 Mosaic Records / EMI / Blue Note | MS-025 / 0946-3-59023-2-7
Jazz / Post Bop / Modal Music / Piano

This set covers the last two years of McCoy Tyner's tenure with Blue Note, beginning with the pianist's Expansions, the first album on which his own identity as a leader-composer-pianist came ringing through. With Woody Shaw, Gary Bartz, Wayne Shorter, Ron Carter (on cello), Herbie Lewis and Freddie Waits, he fashioned a new sound, inspired by, but not mimicking his work with the John Coltrane Quartet. McCoy blended modality, Eastern music, African elements and spirituality into a music that was unmistakably his own.
McCoy Tyner - Mosaic Select 25 [3CD Set] (2007) {Mosaic Records}

Unfortunately neither this album nor its extraordinary follow-up Extensions with Bartz, Shorter, Alice Coltrane (on harp), Carter and Elvin Jones received the recognition they deserved at the time. So three more superb dates sat in the vaults Asante, with Andrew White, Ted Dunbar, Buster Williams, Billy Hart and Mtume was issued in 1974. The rest of the music on this set was finally issued on the 1976 double album Cosmos. One session features a sextet with Bartz, White and Hubert Laws; the other is a magnificent date which adds two reeds and string quartet to Tyner's trio and includes the first version of "Song For My Lady."

In 1972, McCoy signed with the Milestone label and gradually his fortunes began to change. McCoy's new sound had found a receptive audience; record sales increased and McCoy was able to keep a band together and working. By the late seventies, he was one of the most popular and best-paid acoustic jazz artists in the world. The music in this set, five brilliant, innovative sessions over a 25-month period, represents the seeds of that success.
McCoy Tyner - Mosaic Select 25 [3CD Set] (2007) {Mosaic Records}


AAJ INFO
AMG INFO


Original sessions produced by Duke Pearson
All sessions recorded at the Van Gelder Studio, Englewood Cliffs, New Jersey
Recording engineer: Rudy Van Gelder

Produced for release by Michael Cuscuna
Mastered in 24 bit by Ron McMaster


McCoy Tyner - Mosaic Select 25 [3CD Set] (2007) {Mosaic Records}


tracklist and personnel:
DISC ONE

1. Vision (A) 12:18
2. Song Of Happiness (A) 11:58
3. Smitty's Place (A) 5:19
4. Peresina (A) 10:19
5. I Thought I'd Let You Know (A) 6:27
(Cal Massey)
6. Planet X (B) 7:37
7. Vibration Blues (C1) 8:43

DISC TWO
1. Song For My Lady (C2) 7:32
2. Cosmos (C2) 9:00
3. Shaken, But Not Forsaken (C2) 11:44
4. Message From The Nile (D) 12:22
5. The Wanderer (D) 7:43
6. Survival Blues (D) 13:15
7. His Blessings (D) 6:50

DISC THREE
1. Forbidden Land (E) 13:54
2. Asian Lullaby (E) 7:24
3. Hope (E) 14:14
4. Malika (F) 13:39
5. Asante (F) 6:09
6. Goin' Home (F) 7:44
7. Fulfillment (F) 13:59

all compositions by McCoy Tyner, unless otherwise noted.

McCoy Tyner - Mosaic Select 25 [3CD Set] (2007) {Mosaic Records}


Discography:
(A) Woody Shaw, trumpet; Gary Bartz, alto sax, wooden flute; Wayne Shorter, tenor sax, clarinet; Ron Carter, cello; McCoy Tyner, piano; Herbie Lewis, bass; Freddie Waits, drums.
Recorded on August 23, 1968
Originally issued on EXPANSIONS (Blue Note BST 84338)

(B) McCoy Tyner, piano; Herbie Lewis, bass; Freddie Waits, drums.
Recorded on November 22, 1968
Originally issued on COSMOS (Blue Note BNLA-460-2)

(C1) McCoy Tyner, piano; Herbie Lewis, bass; Freddie Waits.
Recorded on April 4, 1969
Originally issued on COSMOS (Blue Note BN-LA460-2)

(C2) Harold Vick, soprano sax; Al Gibbons, reeds, flute; McCoy Tyner, piano; Herbie Lewis, bass; Freddie Waits, drums, Julian Barber, Emanuel Green, violin; Gene Orloff, viola; Kermit Moore, cello.
Recorded on April 4, 1969
Originally issued on COSMOS (Blue Note BN-LA460-2)

(D) Gary Bartz, alto sax; Wayne Shorter, tenor sax, soprano sax; Alice Coltrane, harp; McCoy Tyner, piano; Ron Carter, bass; Elvin Jones, drums.
Recorded on February 9, 1970
Originally issued as EXTENSIONS (Blue Note BN-LA006)

(E) Gary Bartz, alto sax; soprano sax; Hubert Laws, flute, alto flute; Andrew White, oboe; McCoy Tyner, piano; Herbie Lewis, bass; Freddie Waits, drums, tympani, chimes.
Recorded on July 21, 1970
Originally issued on COSMOS (Blue Note BN-LA460-2)

(F) Andrew White, alto sax; McCoy Tyner, piano, wooden flute; Ted Dunbar, guitar; Buster Williams, bass; Billy Hart, drums, African percussion, Mtume, congas, percussion, Songai Sandra Smith, vocals.
Recorded on September 10, 1970
Originally issued on ASANTE (Blue Note BN-LA223)

EAC extraction logfile from 9. March 2007, 13:18 for CD
McCoy Tyner / Mosaic Select 25: Disc 1

Used drive : PLEXTOR CD-R PX-230A Adapter: 1 ID: 0
Read mode : Secure with NO C2, accurate stream, disable cache
Read offset correction : 738
Overread into Lead-In and Lead-Out : No

Used output format : C:\Program Files\EAC\flac.exe (User Defined Encoder)
320 kBit/s
Additional command line options : -V -8 -T "artist=%a" -T "title=%t" -T "album=%g" -T "date=%y" -T "tracknumber=%n" -T "genre=%m" %s

Other options :
Fill up missing offset samples with silence : Yes
Delete leading and trailing silent blocks : No
Installed external ASPI interface


Track 1
Filename D:\Fiamma\McCoy Tyner - Mosaic Select 25 (2007) [FLAC]\CD 1\01 - Vision.wav

Pre-gap length 0:00:02.00

Peak level 100.0 %
Track quality 99.9 %
Test CRC 44105A47
Copy CRC 44105A47
Copy OK

Track 2
Filename D:\Fiamma\McCoy Tyner - Mosaic Select 25 (2007) [FLAC]\CD 1\02 - Song Of Happiness.wav

Pre-gap length 0:00:01.36

Peak level 97.7 %
Track quality 100.0 %
Test CRC 2E9085C4
Copy CRC 2E9085C4
Copy OK

Track 3
Filename D:\Fiamma\McCoy Tyner - Mosaic Select 25 (2007) [FLAC]\CD 1\03 - Smitty's Place.wav

Pre-gap length 0:00:02.48

Peak level 100.0 %
Track quality 100.0 %
Test CRC AE39DB53
Copy CRC AE39DB53
Copy OK

Track 4
Filename D:\Fiamma\McCoy Tyner - Mosaic Select 25 (2007) [FLAC]\CD 1\04 - Peresina.wav

Pre-gap length 0:00:01.74

Peak level 97.7 %
Track quality 100.0 %
Test CRC F18441FA
Copy CRC F18441FA
Copy OK

Track 5
Filename D:\Fiamma\McCoy Tyner - Mosaic Select 25 (2007) [FLAC]\CD 1\05 - I Thought I'd Let You Know.wav

Pre-gap length 0:00:02.42

Peak level 100.0 %
Track quality 100.0 %
Test CRC 127BC59D
Copy CRC 127BC59D
Copy OK

Track 6
Filename D:\Fiamma\McCoy Tyner - Mosaic Select 25 (2007) [FLAC]\CD 1\06 - Planet X.wav

Pre-gap length 0:00:02.21

Peak level 100.0 %
Track quality 100.0 %
Test CRC 07020556
Copy CRC 07020556
Copy OK

Track 7
Filename D:\Fiamma\McCoy Tyner - Mosaic Select 25 (2007) [FLAC]\CD 1\07 - Vibration Blues.wav

Pre-gap length 0:00:02.48

Peak level 97.7 %
Track quality 100.0 %
Test CRC D1A08390
Copy CRC D1A08390
Copy OK

No errors occured


End of status report

EAC extraction logfile from 9. March 2007, 13:36 for CD
McCoy Tyner / Mosaic Select 25: Disc 2

Used drive : PLEXTOR CD-R PX-230A Adapter: 1 ID: 0
Read mode : Secure with NO C2, accurate stream, disable cache
Read offset correction : 738
Overread into Lead-In and Lead-Out : No

Used output format : C:\Program Files\EAC\flac.exe (User Defined Encoder)
320 kBit/s
Additional command line options : -V -8 -T "artist=%a" -T "title=%t" -T "album=%g" -T "date=%y" -T "tracknumber=%n" -T "genre=%m" %s

Other options :
Fill up missing offset samples with silence : Yes
Delete leading and trailing silent blocks : No
Installed external ASPI interface


Track 1
Filename D:\Fiamma\McCoy Tyner - Mosaic Select 25 (2007) [FLAC]\CD 2\01 - Song For My Lady.wav

Pre-gap length 0:00:02.00

Peak level 97.7 %
Track quality 100.0 %
Test CRC 880ABC47
Copy CRC 880ABC47
Copy OK

Track 2
Filename D:\Fiamma\McCoy Tyner - Mosaic Select 25 (2007) [FLAC]\CD 2\02 - Cosmos.wav

Pre-gap length 0:00:02.42

Peak level 97.7 %
Track quality 100.0 %
Test CRC 130F1ECE
Copy CRC 130F1ECE
Copy OK

Track 3
Filename D:\Fiamma\McCoy Tyner - Mosaic Select 25 (2007) [FLAC]\CD 2\03 - Shaken, But Not Forsaken.wav

Pre-gap length 0:00:02.56

Peak level 97.7 %
Track quality 100.0 %
Test CRC F12F2FD6
Copy CRC F12F2FD6
Copy OK

Track 4
Filename D:\Fiamma\McCoy Tyner - Mosaic Select 25 (2007) [FLAC]\CD 2\04 - Message From The Nile.wav

Pre-gap length 0:00:01.70

Peak level 91.2 %
Track quality 100.0 %
Test CRC B382F7E3
Copy CRC B382F7E3
Copy OK

Track 5
Filename D:\Fiamma\McCoy Tyner - Mosaic Select 25 (2007) [FLAC]\CD 2\05 - The Wanderer.wav

Pre-gap length 0:00:02.58

Peak level 87.1 %
Track quality 100.0 %
Test CRC C3621BC3
Copy CRC C3621BC3
Copy OK

Track 6
Filename D:\Fiamma\McCoy Tyner - Mosaic Select 25 (2007) [FLAC]\CD 2\06 - Survival Blues.wav

Pre-gap length 0:00:02.56

Peak level 91.2 %
Track quality 100.0 %
Test CRC 498F2B27
Copy CRC 498F2B27
Copy OK

Track 7
Filename D:\Fiamma\McCoy Tyner - Mosaic Select 25 (2007) [FLAC]\CD 2\07 - His Blessings.wav

Pre-gap length 0:00:01.74

Peak level 87.1 %
Track quality 100.0 %
Test CRC C9AEAB45
Copy CRC C9AEAB45
Copy OK

No errors occured


End of status report

EAC extraction logfile from 9. March 2007, 13:52 for CD
McCoy Tyner / Mosaic Select 25: Disc 3

Used drive : PLEXTOR CD-R PX-230A Adapter: 1 ID: 0
Read mode : Secure with NO C2, accurate stream, disable cache
Read offset correction : 738
Overread into Lead-In and Lead-Out : No

Used output format : C:\Program Files\EAC\flac.exe (User Defined Encoder)
320 kBit/s
Additional command line options : -V -8 -T "artist=%a" -T "title=%t" -T "album=%g" -T "date=%y" -T "tracknumber=%n" -T "genre=%m" %s

Other options :
Fill up missing offset samples with silence : Yes
Delete leading and trailing silent blocks : No
Installed external ASPI interface


Track 1
Filename D:\Fiamma\McCoy Tyner - Mosaic Select 25 (2007) [FLAC]\CD 3\01 - Forbidden Land.wav

Pre-gap length 0:00:02.00

Peak level 87.1 %
Track quality 100.0 %
Test CRC 1F73DAE4
Copy CRC 1F73DAE4
Copy OK

Track 2
Filename D:\Fiamma\McCoy Tyner - Mosaic Select 25 (2007) [FLAC]\CD 3\02 - Asian Lullaby.wav

Pre-gap length 0:00:02.29

Peak level 92.3 %
Track quality 100.0 %
Test CRC 260AB3FE
Copy CRC 260AB3FE
Copy OK

Track 3
Filename D:\Fiamma\McCoy Tyner - Mosaic Select 25 (2007) [FLAC]\CD 3\03 - Hope.wav

Pre-gap length 0:00:02.10

Peak level 87.1 %
Track quality 100.0 %
Test CRC 7BC6039D
Copy CRC 7BC6039D
Copy OK

Track 4
Filename D:\Fiamma\McCoy Tyner - Mosaic Select 25 (2007) [FLAC]\CD 3\04 - Malika.wav

Pre-gap length 0:00:02.20

Peak level 87.1 %
Track quality 100.0 %
Test CRC 2C8061B5
Copy CRC 2C8061B5
Copy OK

Track 5
Filename D:\Fiamma\McCoy Tyner - Mosaic Select 25 (2007) [FLAC]\CD 3\05 - Asante.wav

Pre-gap length 0:00:02.58

Peak level 87.1 %
Track quality 100.0 %
Test CRC F3C9CFDB
Copy CRC F3C9CFDB
Copy OK

Track 6
Filename D:\Fiamma\McCoy Tyner - Mosaic Select 25 (2007) [FLAC]\CD 3\06 - Goin' Home.wav

Pre-gap length 0:00:02.37

Peak level 87.1 %
Track quality 100.0 %
Test CRC 32444123
Copy CRC 32444123
Copy OK

Track 7
Filename D:\Fiamma\McCoy Tyner - Mosaic Select 25 (2007) [FLAC]\CD 3\07 - Fulfillment.wav

Pre-gap length 0:00:02.53

Peak level 87.1 %
Track quality 100.0 %
Test CRC 4B765BC0
Copy CRC 4B765BC0
Copy OK

No errors occured


End of status report


McCoy Tyner - Mosaic Select 25 [3CD Set] (2007) {Mosaic Records}



===