Subcategories

Michael Brecker - Now You See It...(Now You Don't) (1990)

Posted By: amusic
Michael Brecker - Now You See It...(Now You Don't) (1990)

Michael Brecker - Now You See It…(Now You Don't) (1990)
Post-Bop, Contemporary Jazz | Label: Grp Records | EAC Rip | FLAC (Cue+Log+Covers) | 319 MB

An excellent 1990 GRP label jazz fusion album by the master of the tenorsaxophone. For Now You See It…, Michael Brecker's third recording as a leader, the tenor great used different personnel on most of the selections but played consistently well. Jim Beard's synthesizers were utilized for atmosphere, to set up a funky groove, or to provide a backdrop for the leader. Some of the music sounds like updated John Coltrane (Joey Calderazzo's McCoy Tyner-influenced piano helps), while other pieces could almost pass for Weather Report, if Wayne Shorter rather than Joe Zawinul had been the lead voice. Most of the originals (either by Brecker, Beard, or producer Don Grolnick) project moods rather than feature strong melodies, but Michael Brecker's often-raging tenor makes the most of each opportunity.

Tracks:

1 Escher Sketch (A Tale Of Two Rhythms)
2 Minsk
3 Ode To The Doo Da Day
4 Never Alone
5 Peep
6 Dogs In The Wine Shop
7 Quiet City
8 The Meaning Of The Blues

Exact Audio Copy V0.99 prebeta 4 from 23. January 2008

EAC extraction logfile from 5. April 2010, 10:44

Michael Brecker / Now You See It . . . (Now You Don't)

Used drive : HL-DT-STDVDRAM GSA-E10L Adapter: 2 ID: 0

Read mode : Secure
Utilize accurate stream : Yes
Defeat audio cache : Yes
Make use of C2 pointers : No

Read offset correction : 667
Overread into Lead-In and Lead-Out : No
Fill up missing offset samples with silence : Yes
Delete leading and trailing silent blocks : No
Null samples used in CRC calculations : Yes
Used interface : Installed external ASPI interface
Gap handling : Appended to previous track

Used output format : User Defined Encoder
Selected bitrate : 768 kBit/s
Quality : High
Add ID3 tag : No
Command line compressor : C:\Programmi\Exact Audio Copy\FLAC\FLAC.EXE
Additional command line options : -8 -V -T "artist=%a" -T "title=%t" -T "album=%g" -T "date=%y" -T "tracknumber=%n" -T "genre=%m" %s


TOC of the extracted CD

Track | Start | Length | Start sector | End sector
––––––––––––––––––––––––––––-
1 | 0:00.00 | 5:25.67 | 0 | 24441
2 | 5:25.67 | 9:06.40 | 24442 | 65431
3 | 14:32.32 | 5:51.05 | 65432 | 91761
4 | 20:23.37 | 5:36.10 | 91762 | 116971
5 | 25:59.47 | 7:28.35 | 116972 | 150606
6 | 33:28.07 | 6:34.58 | 150607 | 180214
7 | 40:02.65 | 6:07.15 | 180215 | 207754
8 | 46:10.05 | 6:03.70 | 207755 | 235049


Track 1

Filename C:\EACrip\01 - Michael Brecker - Escher Sketch (A Tale Of Two Rhythms) .wav

Pre-gap length 0:00:02.00

Peak level 94.5 %
Track quality 100.0 %
Test CRC B1378ACE
Copy CRC B1378ACE
Accurately ripped (confidence 2) [8A06C1F5]
Copy OK

Track 2

Filename C:\EACrip\02 - Michael Brecker - Minsk .wav

Pre-gap length 0:00:02.69

Peak level 100.0 %
Track quality 99.9 %
Test CRC 0517F552
Copy CRC 0517F552
Cannot be verified as accurate (confidence 2) [A95BA6D9], AccurateRip returned [329C39FA]
Copy OK

Track 3

Filename C:\EACrip\03 - Michael Brecker - Ode To The Doo Da Day .wav

Pre-gap length 0:00:01.50

Peak level 97.9 %
Track quality 100.0 %
Test CRC 811F8912
Copy CRC 811F8912
Accurately ripped (confidence 2) [E9F28E3D]
Copy OK

Track 4

Filename C:\EACrip\04 - Michael Brecker - Never Alone .wav

Pre-gap length 0:00:01.49

Peak level 95.8 %
Track quality 100.0 %
Test CRC B1A0F879
Copy CRC B1A0F879
Accurately ripped (confidence 2) [B1E1E75C]
Copy OK

Track 5

Filename C:\EACrip\05 - Michael Brecker - Peep .wav

Pre-gap length 0:00:01.52

Peak level 100.0 %
Track quality 100.0 %
Test CRC 285306FA
Copy CRC 285306FA
Accurately ripped (confidence 2) [31D586FA]
Copy OK

Track 6

Filename C:\EACrip\06 - Michael Brecker - Dogs In The Wine Shop .wav

Pre-gap length 0:00:02.26

Peak level 95.6 %
Track quality 100.0 %
Test CRC 69428E43
Copy CRC 69428E43
Accurately ripped (confidence 2) [DF7DEDE8]
Copy OK

Track 7

Filename C:\EACrip\07 - Michael Brecker - Quiet City .wav

Pre-gap length 0:00:00.90

Peak level 75.7 %
Track quality 100.0 %
Test CRC 384B0AE8
Copy CRC 384B0AE8
Accurately ripped (confidence 2) [C9083F86]
Copy OK

Track 8

Filename C:\EACrip\08 - Michael Brecker - The Meaning Of The Blues .wav

Pre-gap length 0:00:01.88

Peak level 92.9 %
Track quality 99.9 %
Test CRC 119E1DB9
Copy CRC 119E1DB9
Accurately ripped (confidence 2) [CD546120]
Copy OK


7 track(s) accurately ripped
1 track(s) could not be verified as accurate

Some tracks could not be verified as accurate

No errors occurred

End of status report

Amazon

Personnel:
Michael Brecker: Sax (Tenor), EWI, Synthesizer, Keyboards, Drum Programming
Victor Bailey Bass (1-2, 4-7)
Don Alias Percussion (1, 3-4, 6, 7)
Jon Herington Guitar (1-3, 5)
Jim Beard Keyboards, Synthesizer
Adam Nussbaum Drums, Cymbals
Joey Calderazzo Piano (2, 5-6, 8)
Omar Hakim Drums (4, 7)
Jay Anderson Acoustic Bass (5, 8)
Milton Cardona Percussion (6)

Download
HF p.1 | HF p.2 | HF p.3

RS p.1 | RS p.2 | RS p.3

Password: amusic