Subcategories
Tags
Language
Tags

Michael Hurley - Ancestral Swamp (2007) {Gnomonsong ‎GONG07}

Posted By: ruskaval
Michael Hurley - Ancestral Swamp (2007) {Gnomonsong ‎GONG07}

Michael Hurley - Ancestral Swamp (2007) {Gnomonsong ‎GONG07}
XLD rip (secure mode) | FLAC (tracks)+CUE+LOG -> 229 Mb | MP3 @320 -> 128 Mb
Full Artwork @ 600 dpi (jpg) -> 22 Mb | 5% repair rar
© 2007 Gnomonsong ‎Recordings / Michael Hurley Snocko Music | GONG07
Folk / Country Folk / Old-Timey / Contemporary Folk

Michael Hurley's music hadn't changed much in the 40-odd years between his first recordings and this 2007 release. In Hurley's case, however, that's a good thing; you wouldn't want his brand of rustic yet eccentric folk to get slick or diluted, and it's not exactly as if he's been overexposed on disc over the course of his lengthy career. This is relaxed, earthy eclectic folk with a sitting-on-the-porch feel, the recording so sparse that you often feel as though you're listening to a solo or nearly solo performance, though in fact three other musicians do help out multi-instrumentalist Hurley over the course of the record.

Although it's grounded in traditional Americana type acoustic folk, it's not reverently traditionalist, adding touches like gutbucket tremolo electric guitar on "Dying Crapshooter's Blues," electric piano on "Lonesome Graveyard," and (on "El Dorado") almost subliminal backup vocals by Tara Jane O'Neil. Hurley sings his tunes with a wizened voice and an off-the-cuff narrative flavor, but it's more structured and cogent material than that of many other (usually younger) folky musicians whose songs owe something to a stream-of-consciousness sort of style. American folk idioms were so deeply etched into Hurley's DNA by the time of this recording that it's not possible to pigeonhole him into any one or two of them; certainly there's some Delta blues, but there's also some country and Appalachian music, none of the forms taking particular supremacy over others. This is the kind of music you'd love to hear on a lazy night after a full home-cooked meal; it's comfortable and homey, but at the same time accomplished and thoughtful despite its casual air, emanating unforced, ingratiating charm.
Michael Hurley - Ancestral Swamp (2007) {Gnomonsong ‎GONG07}


Personnel
Vocals, Guitar – Tara Jane O'Neil (tracks: 5, 7)
Vocals, Guitar, Fiddle, Banjo [Fretless Banjo], Electric Piano [Electronic Piano] – Michael Hurley

Recorded 2001 to 2006 in Astoria and Portland, OR, and Portsmouth, OH.

Tracklisting:
01 - Knockando
02 - Dying Crapshooter's Blues
03 - Lonesome Graveyard
04 - New River Blues
05 - El Dorado
06 - 1st Precinct Blues
07 - Light Green Fellow
08 - Gambling Charley
09 - Streets Of Laredo
10 - When I Get Back Home
11 - She Got A Mathematic

X Lossless Decoder version 20191004 (152.0)

XLD extraction logfile from 2020-11-06 14:28:05 -0500

Michael Hurley / Ancestral Swamp

Used drive : HL-DT-ST DVDRAM GE24NU40 (revision 1.00)
Media type : Pressed CD

Ripper mode : XLD Secure Ripper
Disable audio cache : OK for the drive with a cache less than 1375KiB
Make use of C2 pointers : NO
Read offset correction : 6
Max retry count : 20
Gap status : Analyzed, Appended (except HTOA)

TOC of the extracted CD
Track | Start | Length | Start sector | End sector
––––––––––––––––––––––––––––-
1 | 00:00:00 | 04:28:19 | 0 | 20118
2 | 04:28:19 | 05:08:09 | 20119 | 43227
3 | 09:36:28 | 05:18:54 | 43228 | 67131
4 | 14:55:07 | 04:42:64 | 67132 | 88345
5 | 19:37:71 | 03:53:33 | 88346 | 105853
6 | 23:31:29 | 05:23:37 | 105854 | 130115
7 | 28:54:66 | 04:23:09 | 130116 | 149849
8 | 33:18:00 | 04:15:21 | 149850 | 168995
9 | 37:33:21 | 04:04:66 | 168996 | 187361
10 | 41:38:12 | 06:05:35 | 187362 | 214771
11 | 47:43:47 | 04:52:52 | 214772 | 236723

AccurateRip Summary (DiscID: 00158d93-00ba80d9-8f0c540b)
Track 01 : OK (v1+v2, confidence 8/8)
Track 02 : OK (v1+v2, confidence 8/8)
Track 03 : OK (v1+v2, confidence 7/7)
Track 04 : OK (v1+v2, confidence 8/8)
Track 05 : OK (v1+v2, confidence 7/7)
Track 06 : OK (v1+v2, confidence 8/8)
Track 07 : OK (v1+v2, confidence 8/8)
Track 08 : OK (v1+v2, confidence 7/7)
Track 09 : OK (v1+v2, confidence 8/8)
Track 10 : OK (v1+v2, confidence 8/8)
Track 11 : OK (v1+v2, confidence 8/8)
->All tracks accurately ripped.

All Tracks
Album gain : -3.69 dB
Peak : 0.996857
Statistics
Read error : 0
Jitter error (maybe fixed) : 0
Retry sector count : 0
Damaged sector count : 0

Track 01
Filename : /Users/homebase/Music/XLD Rips/Michael Hurley - Ancestral Swamp (2007) [FLAC]/01 - Michael Hurley - Knockando.flac
Pre-gap length : 00:02:00

Track gain : -4.33 dB
Peak : 0.990295
CRC32 hash (test run) : 4D858307
CRC32 hash : 4D858307
CRC32 hash (skip zero) : 900E9519
AccurateRip v1 signature : 066C1B97
AccurateRip v2 signature : F0CF0247
->Accurately ripped (v1+v2, confidence 5+3/8)
Statistics
Read error : 0
Jitter error (maybe fixed) : 0
Retry sector count : 0
Damaged sector count : 0

Track 02
Filename : /Users/homebase/Music/XLD Rips/Michael Hurley - Ancestral Swamp (2007) [FLAC]/02 - Michael Hurley - Dying Crapshooter's Blues.flac

Track gain : -1.99 dB
Peak : 0.990234
CRC32 hash (test run) : 2599D191
CRC32 hash : 2599D191
CRC32 hash (skip zero) : 131A4234
AccurateRip v1 signature : E4A664C0
AccurateRip v2 signature : F6D24901
->Accurately ripped (v1+v2, confidence 5+3/8)
Statistics
Read error : 0
Jitter error (maybe fixed) : 0
Retry sector count : 0
Damaged sector count : 0

Track 03
Filename : /Users/homebase/Music/XLD Rips/Michael Hurley - Ancestral Swamp (2007) [FLAC]/03 - Michael Hurley - Lonesome Graveyard.flac

Track gain : -2.18 dB
Peak : 0.990051
CRC32 hash (test run) : 23D42D12
CRC32 hash : 23D42D12
CRC32 hash (skip zero) : 1BB86EB0
AccurateRip v1 signature : BA978D64
AccurateRip v2 signature : 57D0E1B4
->Accurately ripped (v1+v2, confidence 5+2/7)
Statistics
Read error : 0
Jitter error (maybe fixed) : 0
Retry sector count : 0
Damaged sector count : 0

Track 04
Filename : /Users/homebase/Music/XLD Rips/Michael Hurley - Ancestral Swamp (2007) [FLAC]/04 - Michael Hurley - New River Blues.flac

Track gain : -2.26 dB
Peak : 0.996857
CRC32 hash (test run) : DDF054B7
CRC32 hash : DDF054B7
CRC32 hash (skip zero) : 4BDB9088
AccurateRip v1 signature : 2331CB4F
AccurateRip v2 signature : 451C60B8
->Accurately ripped (v1+v2, confidence 5+3/8)
Statistics
Read error : 0
Jitter error (maybe fixed) : 0
Retry sector count : 0
Damaged sector count : 0

Track 05
Filename : /Users/homebase/Music/XLD Rips/Michael Hurley - Ancestral Swamp (2007) [FLAC]/05 - Michael Hurley - El Dorado.flac

Track gain : -5.64 dB
Peak : 0.990265
CRC32 hash (test run) : 0E392238
CRC32 hash : 0E392238
CRC32 hash (skip zero) : 2C95181A
AccurateRip v1 signature : 3B5DC0BB
AccurateRip v2 signature : FB2F79B3
->Accurately ripped (v1+v2, confidence 5+2/7)
Statistics
Read error : 0
Jitter error (maybe fixed) : 0
Retry sector count : 0
Damaged sector count : 0

Track 06
Filename : /Users/homebase/Music/XLD Rips/Michael Hurley - Ancestral Swamp (2007) [FLAC]/06 - Michael Hurley - 1st Precinct Blues.flac

Track gain : -3.82 dB
Peak : 0.994232
CRC32 hash (test run) : 2F1AFE13
CRC32 hash : 2F1AFE13
CRC32 hash (skip zero) : 23FDE430
AccurateRip v1 signature : 2FCD190B
AccurateRip v2 signature : F0C98C90
->Accurately ripped (v1+v2, confidence 5+3/8)
Statistics
Read error : 0
Jitter error (maybe fixed) : 0
Retry sector count : 0
Damaged sector count : 0

Track 07
Filename : /Users/homebase/Music/XLD Rips/Michael Hurley - Ancestral Swamp (2007) [FLAC]/07 - Michael Hurley - Light Green Fellow.flac

Track gain : -5.01 dB
Peak : 0.990173
CRC32 hash (test run) : 2F4BAB95
CRC32 hash : 2F4BAB95
CRC32 hash (skip zero) : 37CDAC1F
AccurateRip v1 signature : EA2C1162
AccurateRip v2 signature : 99BC4B5A
->Accurately ripped (v1+v2, confidence 5+3/8)
Statistics
Read error : 0
Jitter error (maybe fixed) : 0
Retry sector count : 0
Damaged sector count : 0

Track 08
Filename : /Users/homebase/Music/XLD Rips/Michael Hurley - Ancestral Swamp (2007) [FLAC]/08 - Michael Hurley - Gambling Charley.flac

Track gain : -2.98 dB
Peak : 0.996368
CRC32 hash (test run) : E4324C80
CRC32 hash : E4324C80
CRC32 hash (skip zero) : 673BB8E6
AccurateRip v1 signature : 03E68EDE
AccurateRip v2 signature : 9B23DDF0
->Accurately ripped (v1+v2, confidence 5+2/7)
Statistics
Read error : 0
Jitter error (maybe fixed) : 0
Retry sector count : 0
Damaged sector count : 0

Track 09
Filename : /Users/homebase/Music/XLD Rips/Michael Hurley - Ancestral Swamp (2007) [FLAC]/09 - Michael Hurley - Streets Of Laredo.flac

Track gain : -5.23 dB
Peak : 0.991394
CRC32 hash (test run) : 177263DD
CRC32 hash : 177263DD
CRC32 hash (skip zero) : 30E3C52E
AccurateRip v1 signature : BAE686CD
AccurateRip v2 signature : 92121860
->Accurately ripped (v1+v2, confidence 5+3/8)
Statistics
Read error : 0
Jitter error (maybe fixed) : 0
Retry sector count : 0
Damaged sector count : 0

Track 10
Filename : /Users/homebase/Music/XLD Rips/Michael Hurley - Ancestral Swamp (2007) [FLAC]/10 - Michael Hurley - When I Get Back Home.flac

Track gain : -3.06 dB
Peak : 0.990143
CRC32 hash (test run) : 7F290066
CRC32 hash : 7F290066
CRC32 hash (skip zero) : 84204F4A
AccurateRip v1 signature : DB571CB2
AccurateRip v2 signature : 076967D7
->Accurately ripped (v1+v2, confidence 5+3/8)
Statistics
Read error : 0
Jitter error (maybe fixed) : 0
Retry sector count : 0
Damaged sector count : 0

Track 11
Filename : /Users/homebase/Music/XLD Rips/Michael Hurley - Ancestral Swamp (2007) [FLAC]/11 - Michael Hurley - She Got A Mathematic.flac

Track gain : -2.69 dB
Peak : 0.990417
CRC32 hash (test run) : E6FF5268
CRC32 hash : E6FF5268
CRC32 hash (skip zero) : D18CD1E2
AccurateRip v1 signature : 47922EC2
AccurateRip v2 signature : A855A1B5
->Accurately ripped (v1+v2, confidence 5+3/8)
Statistics
Read error : 0
Jitter error (maybe fixed) : 0
Retry sector count : 0
Damaged sector count : 0

No errors occurred

End of status report

––-BEGIN XLD SIGNATURE––-
cZN4NDgBBNqcbhYE_li8MeWpaZRXBNro4owcSnccj_7gU8JSxzMY_rdtUzn_fmzdNgT2m_mTDkjoUdoFT24X5xRSyK_xu5Vg9xrdo4u
––-END XLD SIGNATURE––-


Michael Hurley - Ancestral Swamp (2007) {Gnomonsong ‎GONG07}

Michael Hurley - Ancestral Swamp (2007) {Gnomonsong ‎GONG07}



===