Subcategories
Tags
Language
Tags

Michael Jefry Stevens - For The Children (1995) {Cadence Jazz Records ‎CJR1202 rel 2008}

Posted By: ruskaval
Michael Jefry Stevens - For The Children (1995) {Cadence Jazz Records ‎CJR1202 rel 2008}

Michael Jefry Stevens - For The Children (1995) {Cadence Jazz Records ‎CJR1202 rel 2008}
EAC rip (secure mode) | FLAC (tracks)+CUE+LOG -> 290 Mb | MP3 @320 -> 146 Mb
Full Artwork @ 300 dpi (png) -> 31 Mb | 5% repair rar
© 1995, 2008 Cadence Jazz Records ‎| CJR 1202
Jazz / Post Bop / Piano

During his long and fruitful career, pianist Michael Jefry Stevens has spanned the range of music from commercial rock and funk to mainstream jazz, and the modern creative improvised style. This recording was in the can for some 13 years before seeing the light of day. It showcases the quartet of Stevens while he was living in New York City, teamed with the mighty bassist Dominic Duval, drummer Jay Rosen, and ex-Art Blakey & the Jazz Messengers tenor saxophonist David Schnitter. The music reflects on a certain hard- to post bop esthetic, ballads for old flames, and a solid metropolitan edge that neither boils over, nor secedes to any pressure, expectation or self-doubt. In many ways a robust session due to Schnitter's expressive playing, it also marks this rhythm section as a driving force that can also play tender and restrained, but no less potent jazz.

There's a correlation to the post-hard-neo bop music made by Chick Corea and Joe Henderson in the late '70s to early '80s, confirmed by the driven intricate swinger "Henderson," but further cemented by the more mysterious "Specific Gravity" with the rumbling piano of Stevens. "Patato's Song," for the great conga player Carlos "Patato" Valdes, is also in the Corea-Henderson mode, with a thin, minimalist Latin groove built by the band other than Stevens, although he does come in late, and Schnitter's Bronx swagger comes across on the straight bluesy "The Hunt." "Lazy Waltz" is passive in rhythm and melodic content, while the spirited "Graduation," led by Duval's modal bass, has Stevens and Schnitter playing deft lines together in the most convincing modern bop presentation of the date. On the lighter side "Sadness of the Madness" is a reflective, moody ballad that can also be heard on the recording that Stevens and bassist Joe Fonda released, Parallel Lines. "Sunny's Song" is a soulful tribute to love lost, especially from Duval's bass, and the title track, while not at all a child's song, is a reflection of the helpless innocence of youth we all must lose, but many times refuse to. This for some might be an interesting aside in the discography of Stevens, for his horizons would expand in the next decade. It's good to look back sometimes at the way things were, how we used to be, and how thankful we are for the now, being both difficult but exciting. This CD also gives a glimpse to the vast abilities of Duval and Schnitter, unsung heroes in jazz who, like Stevens, deserve much wider recognition.

Personnel
Double Bass – Dominic Duval
Drums – Jay Rosen
Piano, Composed By – Michael Jefry Stevens
Saxophone – David Schnitter

Recorded live to DAT, February 10, 1995 at Acoustic Recording, Brooklyn, NY

Track Listing
01 - Specific Gravity
02 - Henderson
03 - Sadness of the Madness
04 - The Hunt
05 - Graduation
06 - Sunny's Song
07 - Patato's Song
08 - For the Children
09 - Lazy Waltz

Exact Audio Copy V0.99 prebeta 5 from 4. May 2009

EAC extraction logfile from 4. May 2010, 15:26

Michael Jefry Stevens Quartet / For The Children

Used drive : HL-DT-STBDDVDRW GGC-H20L Adapter: 1 ID: 0

Read mode : Secure
Utilize accurate stream : Yes
Defeat audio cache : Yes
Make use of C2 pointers : No

Read offset correction : 667
Overread into Lead-In and Lead-Out : No
Fill up missing offset samples with silence : Yes
Delete leading and trailing silent blocks : No
Null samples used in CRC calculations : Yes
Used interface : Native Win32 interface for Win NT & 2000
Gap handling : Appended to previous track

Used output format : User Defined Encoder
Selected bitrate : 768 kBit/s
Quality : High
Add ID3 tag : No
Command line compressor : D:\Audio\Exact Audio Copy\FLAC\FLAC.EXE
Additional command line options : -6 -V -T "ARTIST=%a" -T "TITLE=%t" -T "ALBUM=%g" -T "DATE=%y" -T "TRACKNUMBER=%n" -T "GENRE=%m" -T "COMMENT=%e" %s -o %d


TOC of the extracted CD

Track | Start | Length | Start sector | End sector
––––––––––––––––––––––––––––-
1 | 0:00.00 | 7:07.26 | 0 | 32050
2 | 7:07.26 | 6:02.10 | 32051 | 59210
3 | 13:09.36 | 7:27.05 | 59211 | 92740
4 | 20:36.41 | 6:37.30 | 92741 | 122545
5 | 27:13.71 | 8:01.39 | 122546 | 158659
6 | 35:15.35 | 3:19.16 | 158660 | 173600
7 | 38:34.51 | 9:15.60 | 173601 | 215285
8 | 47:50.36 | 6:03.47 | 215286 | 242557
9 | 53:54.08 | 7:33.56 | 242558 | 276588


Track 1

Filename E:\!!New Rip\Michael Jefry Stevens Quartet - For The Children\01- Specific Gravity.wav

Pre-gap length 0:00:02.00

Peak level 74.5 %
Track quality 99.9 %
Test CRC A2EA0FE8
Copy CRC A2EA0FE8
Track not present in AccurateRip database
Copy OK

Track 2

Filename E:\!!New Rip\Michael Jefry Stevens Quartet - For The Children\02- Henderson.wav

Pre-gap length 0:00:02.76

Peak level 87.6 %
Track quality 100.0 %
Test CRC 53040CA5
Copy CRC 53040CA5
Track not present in AccurateRip database
Copy OK

Track 3

Filename E:\!!New Rip\Michael Jefry Stevens Quartet - For The Children\03- Sadness of the Madness.wav

Pre-gap length 0:00:02.76

Peak level 31.9 %
Track quality 100.0 %
Test CRC 4B9B6DC6
Copy CRC 4B9B6DC6
Track not present in AccurateRip database
Copy OK

Track 4

Filename E:\!!New Rip\Michael Jefry Stevens Quartet - For The Children\04- The Hunt.wav

Pre-gap length 0:00:02.77

Peak level 100.0 %
Track quality 100.0 %
Test CRC 24E95030
Copy CRC 24E95030
Track not present in AccurateRip database
Copy OK

Track 5

Filename E:\!!New Rip\Michael Jefry Stevens Quartet - For The Children\05- Graduation.wav

Pre-gap length 0:00:02.76

Peak level 100.0 %
Track quality 99.9 %
Test CRC F9994AEB
Copy CRC F9994AEB
Track not present in AccurateRip database
Copy OK

Track 6

Filename E:\!!New Rip\Michael Jefry Stevens Quartet - For The Children\06- Sunny's Song.wav

Pre-gap length 0:00:02.76

Peak level 61.3 %
Track quality 99.9 %
Test CRC 13F57B31
Copy CRC 13F57B31
Track not present in AccurateRip database
Copy OK

Track 7

Filename E:\!!New Rip\Michael Jefry Stevens Quartet - For The Children\07- Patato's Song.wav

Pre-gap length 0:00:02.76

Peak level 100.0 %
Track quality 100.0 %
Test CRC F031CFC2
Copy CRC F031CFC2
Track not present in AccurateRip database
Copy OK

Track 8

Filename E:\!!New Rip\Michael Jefry Stevens Quartet - For The Children\08- For the Children.wav

Pre-gap length 0:00:02.77

Peak level 67.4 %
Track quality 100.0 %
Test CRC A37DD4FA
Copy CRC A37DD4FA
Track not present in AccurateRip database
Copy OK

Track 9

Filename E:\!!New Rip\Michael Jefry Stevens Quartet - For The Children\09- Lazy Waltz.wav

Pre-gap length 0:00:02.76

Peak level 100.0 %
Track quality 100.0 %
Test CRC D2DF76BD
Copy CRC D2DF76BD
Track not present in AccurateRip database
Copy OK


None of the tracks are present in the AccurateRip database

No errors occurred

End of status report


Michael Jefry Stevens - For The Children (1995) {Cadence Jazz Records ‎CJR1202 rel 2008}

Michael Jefry Stevens - For The Children (1995) {Cadence Jazz Records ‎CJR1202 rel 2008}



===