Subcategories

Mike Stern - Big Neighborhood (2009)

Posted By: garbolino
Mike Stern - Big Neighborhood (2009)

Mike Stern - Big Neighborhood (2009)
Jazz | EAC Rip | FLAC (tracks) ,Cue,Log | SCANS | 492 MB
Label: Heads Up | RAR 3% Rec.| RS.com



Mike Stern's music has always come from a colorful and diverse part of town - a place where numerous artistic styles converge to create a fresh sound that's rooted in jazz but refuses to adhere to rigid borders. Since his earliest recordings, this former bandmate of Miles Davis, Jaco Pastorius, Billy Cobham and other high-profile innovators has grafted elements of rock, blues, soul and more to his solid jazz foundations. On Stern's street, anybody who brings a sense of energy, eclecticism and passion to the craft of music is welcome to play.

Tracks


01. Big Neighborhood
02. 6th Street
03. Reach - (previously unreleased)
04. Song For Pepper
05. Coupe De Ville
06. Bird Blue
07. Moroccan Roll
08. Long Time Gone
09. Check One
10. That's All It Is
11. Hope You Don't Mind

Personnel:

Randy Brecker - trumpet
Chris Wood - electric bass
Steve Vai - guitar
Eric Johnson
Dave Weckl
Bob Malach - saxophone
John Medeski - Wurlitzer piano, Clavinet, Hammond b-3 organ
Richard Bona
Mike Stern - guitar
Terri Lyne Carrington
Billy Martin
Cindy Blackman
Jim Beard - piano, Hammond b-3 organ, keyboards
Lincoln Goines - bass guitar
Bob Franceschini
Esperanza Spalding - vocals, bass guitar
Chris Minh Doky
Lionel Cordew - drums

Exact Audio Copy V0.99 prebeta 5 from 4. May 2009

EAC extraction logfile from 26. December 2009, 18:43

Mike Stern / Big Neighborhood

Used drive : PLEXTOR DVDR PX-810SA Adapter: 8 ID: 0

Read mode : Secure
Utilize accurate stream : Yes
Defeat audio cache : Yes
Make use of C2 pointers : No

Read offset correction : 48
Overread into Lead-In and Lead-Out : No
Fill up missing offset samples with silence : Yes
Delete leading and trailing silent blocks : No
Null samples used in CRC calculations : Yes
Used interface : Installed external ASPI interface
Gap handling : Appended to previous track

Used output format : User Defined Encoder
Selected bitrate : 128 kBit/s
Quality : High
Add ID3 tag : No
Command line compressor : C:\Program Files (x86)\Exact Audio Copy\Flac\flac.exe
Additional command line options : -8 -V -T "ARTIST=%a" -T "TITLE=%t" -T "ALBUM=%g" -T "DATE=%y" -T "TRACKNUMBER=%n" -T "GENRE=%m" -T "COMMENT=EAC v.0.99pb5 Flac 1.2.1 -8" %s


TOC of the extracted CD

Track | Start | Length | Start sector | End sector
––––––––––––––––––––––––––––-
1 | 0:00.00 | 7:40.66 | 0 | 34565
2 | 7:40.66 | 7:49.28 | 34566 | 69768
3 | 15:30.19 | 5:30.60 | 69769 | 94578
4 | 21:01.04 | 5:43.45 | 94579 | 120348
5 | 26:44.49 | 4:36.64 | 120349 | 141112
6 | 31:21.38 | 5:44.03 | 141113 | 166915
7 | 37:05.41 | 7:06.70 | 166916 | 198935
8 | 44:12.36 | 7:52.56 | 198936 | 234391
9 | 52:05.17 | 7:39.15 | 234392 | 268831
10 | 59:44.32 | 4:52.23 | 268832 | 290754
11 | 64:36.55 | 5:18.54 | 290755 | 314658


Track 1

Filename H:\RIPS\01 - Big Neighborhood.wav

Pre-gap length 0:00:02.00

Peak level 99.8 %
Track quality 99.9 %
Test CRC 92D039DC
Copy CRC 92D039DC
Accurately ripped (confidence 3) [669E1D39]
Copy OK

Track 2

Filename H:\RIPS\02 - 6th Street.wav

Pre-gap length 0:00:00.02

Peak level 99.8 %
Track quality 100.0 %
Test CRC 0B5FB048
Copy CRC 0B5FB048
Accurately ripped (confidence 3) [52DD5983]
Copy OK

Track 3

Filename H:\RIPS\03 - Reach.wav

Pre-gap length 0:00:00.02

Peak level 98.3 %
Track quality 100.0 %
Test CRC AC1B59EB
Copy CRC AC1B59EB
Accurately ripped (confidence 3) [CBFFAA9D]
Copy OK

Track 4

Filename H:\RIPS\04 - Song For Pepper.wav

Pre-gap length 0:00:00.98

Peak level 96.2 %
Track quality 100.0 %
Test CRC 84CA015A
Copy CRC 84CA015A
Accurately ripped (confidence 3) [D3CDFC02]
Copy OK

Track 5

Filename H:\RIPS\05 - Coupe De Ville.wav

Pre-gap length 0:00:00.02

Peak level 97.6 %
Track quality 100.0 %
Test CRC DEC86303
Copy CRC DEC86303
Accurately ripped (confidence 3) [B2AE66A2]
Copy OK

Track 6

Filename H:\RIPS\06 - Bird Blue.wav

Pre-gap length 0:00:01.09

Peak level 95.3 %
Track quality 99.9 %
Test CRC 4B464FC0
Copy CRC 4B464FC0
Accurately ripped (confidence 3) [F949CD1D]
Copy OK

Track 7

Filename H:\RIPS\07 - Moroccan Roll.wav

Pre-gap length 0:00:02.05

Peak level 99.8 %
Track quality 100.0 %
Test CRC 3ACA8C21
Copy CRC 3ACA8C21
Accurately ripped (confidence 3) [1B55CE8A]
Copy OK

Track 8

Filename H:\RIPS\08 - Long Time Gone.wav

Pre-gap length 0:00:02.28

Peak level 99.8 %
Track quality 100.0 %
Test CRC EF279882
Copy CRC EF279882
Accurately ripped (confidence 3) [156EC85C]
Copy OK

Track 9

Filename H:\RIPS\09 - Check One.wav

Pre-gap length 0:00:01.29

Peak level 98.2 %
Track quality 100.0 %
Test CRC 5CCDFF75
Copy CRC 5CCDFF75
Accurately ripped (confidence 3) [CE815CC1]
Copy OK

Track 10

Filename H:\RIPS\10 - That's All It Is.wav

Pre-gap length 0:00:01.89

Peak level 97.2 %
Track quality 100.0 %
Test CRC EB4C8217
Copy CRC EB4C8217
Accurately ripped (confidence 3) [560CB19F]
Copy OK

Track 11

Filename H:\RIPS\11 - Hope You Don't Mind.wav

Pre-gap length 0:00:02.33

Peak level 95.5 %
Track quality 100.0 %
Test CRC 94CADEED
Copy CRC 94CADEED
Accurately ripped (confidence 3) [D9176B22]
Copy OK


All tracks accurately ripped

No errors occurred

End of status report


Part1
Part2
Part3


pass: garbolino