Subcategories

Hank Mobley, Lee Morgan - Monday Night At Birdland (1958) {2016 Japan SHM-CD Jazz Masters Collection 1200 Series WPCR-29011}

Posted By: ruskaval
Hank Mobley, Lee Morgan - Monday Night At Birdland (1958) {2016 Japan SHM-CD Jazz Masters Collection 1200 Series WPCR-29011}

Hank Mobley, Billy Root, Curtis Fuller, Lee Morgan - Monday Night At Birdland (1958) {2016 Japan SHM-CD Jazz Masters Collection 1200 Series WPCR-29011}
EAC rip (secure mode) | FLAC (tracks)+CUE+LOG -> 359 Mb | MP3 @320 -> 109 Mb
Full Artwork @ 600 dpi (png) -> 193 Mb | 5% repair rar | 24bit remaster
© 1958, 2016 Roulette / Parlophone / Warner Music Japan | WPCR-29011
Jazz / Hard Bop

Reissue with SHM-CD format and new 24bit remastering. Birdland was the Mecca for most modernists of the 50s. It was the only club in New York City where a big band could play. Bookings were mostly for solid two-week periods. On Monday nights the regulars were off, and the legendary jazz disk jockey Symphony Sid (1909-1984) ran one of his jam sessions with young, upand-coming, cutting edge local musicians. Anything could happen and frequently did, as these outstanding performances, recorded on two consecutive Monday nights, on April 21 and 28 1958, show.

Anyone who was anyone in 50s jazz was introduced by Symphony Sid at Birdland. Here Lee Morgan, not yet 20, gives notice of his exceptional talent, his trumpet clear, biting and full-toned. Trombonist Curtis Fuller, with his unique, French Horn-like sound, shows his flowing conception and great dynamic range. On tenor, Hank Mobley is all ease and authority, while Billy Root swings mightily. And the rhythm section drives them with strength and sensitivity throughout these invigoratingly cohesive blowing sessions by some of the stellar talents of the era.
Hank Mobley, Lee Morgan - Monday Night At Birdland (1958) {2016 Japan SHM-CD Jazz Masters Collection 1200 Series WPCR-29011}


Musicians

Hank Mobley - tenor sax
Curtis Fuller - trombone
Lee Morgan - trumpet
Billy Root - tenor sax
Ray Bryant - piano
Tommy Bryant - bass
"Specs" Wright - drums

Recorded: "Birdland", NYC, April 21, 1958

Track Listing

01 - Introduction by 'Symphony Sid'
02 - Walkin'
03 - All The Things You Are
04 - Bag's Groove
05 - There Will Never Be Another You

Exact Audio Copy V1.3 from 2. September 2016

EAC extraction logfile from 31. March 2018, 22:22

Hank Mobley, Billy Root, Curtis Fuller, Lee Morgan / Monday Night At Birdland

Used drive : ATAPI iHAS122 F Adapter: 1 ID: 2

Read mode : Secure
Utilize accurate stream : Yes
Defeat audio cache : Yes
Make use of C2 pointers : No

Read offset correction : 6
Overread into Lead-In and Lead-Out : No
Fill up missing offset samples with silence : Yes
Delete leading and trailing silent blocks : No
Null samples used in CRC calculations : Yes
Used interface : Native Win32 interface for Win NT & 2000
Gap handling : Appended to previous track

Used output format : User Defined Encoder
Selected bitrate : 1024 kBit/s
Quality : High
Add ID3 tag : No
Command line compressor : C:\Program Files (x86)\Exact Audio Copy_v1.3\Flac\flac.exe
Additional command line options : -8 -V -T "ARTIST=%artist%" -T "TITLE=%title%" -T "ALBUM=%albumtitle%" -T "DATE=%year%" -T "TRACKNUMBER=%tracknr%" -T "TOTALTRACKS=%numtracks%" -T "GENRE=%genre%" -T "ALBUMARTIST=%albumartist%" -T "ALBUM ARTIST=%albumartist%" -T "COMMENT=EAC Secure Mode, Test & Copy, AccurateRip, FLAC -8" %source%


TOC of the extracted CD

Track | Start | Length | Start sector | End sector
––––––––––––––––––––––––––––-
1 | 0:00.00 | 0:10.49 | 0 | 798
2 | 0:10.49 | 12:26.35 | 799 | 56783
3 | 12:37.09 | 11:27.51 | 56784 | 108359
4 | 24:04.60 | 12:29.26 | 108360 | 164560
5 | 36:34.11 | 9:30.07 | 164561 | 207317


Track 1

Filename D:\_EAC\Hank Mobley, Billy Root, Curtis Fuller, Lee Morgan - Monday Night At Birdland (1958) [FLAC] {WPCR-29011}\01 - Introduction by 'Symphony Sid'.wav

Pre-gap length 0:00:02.00

Peak level 100.0 %
Extraction speed 1.1 X
Track quality 100.0 %
Test CRC 950BE9A1
Copy CRC 950BE9A1
Track not present in AccurateRip database
Copy OK

Track 2

Filename D:\_EAC\Hank Mobley, Billy Root, Curtis Fuller, Lee Morgan - Monday Night At Birdland (1958) [FLAC] {WPCR-29011}\02 - Walkin'.wav

Peak level 100.0 %
Extraction speed 6.1 X
Track quality 100.0 %
Test CRC 686076C5
Copy CRC 686076C5
Track not present in AccurateRip database
Copy OK

Track 3

Filename D:\_EAC\Hank Mobley, Billy Root, Curtis Fuller, Lee Morgan - Monday Night At Birdland (1958) [FLAC] {WPCR-29011}\03 - All The Things You Are.wav

Peak level 100.0 %
Extraction speed 7.6 X
Track quality 100.0 %
Test CRC 38960EAF
Copy CRC 38960EAF
Track not present in AccurateRip database
Copy OK

Track 4

Filename D:\_EAC\Hank Mobley, Billy Root, Curtis Fuller, Lee Morgan - Monday Night At Birdland (1958) [FLAC] {WPCR-29011}\04 - Bag's Groove.wav

Peak level 100.0 %
Extraction speed 8.2 X
Track quality 99.9 %
Test CRC 4E1665B9
Copy CRC 4E1665B9
Track not present in AccurateRip database
Copy OK

Track 5

Filename D:\_EAC\Hank Mobley, Billy Root, Curtis Fuller, Lee Morgan - Monday Night At Birdland (1958) [FLAC] {WPCR-29011}\05 - There Will Never Be Another You.wav

Peak level 100.0 %
Extraction speed 9.6 X
Track quality 100.0 %
Test CRC 0972D76B
Copy CRC 0972D76B
Track not present in AccurateRip database
Copy OK


None of the tracks are present in the AccurateRip database

No errors occurred

End of status report

–– CUETools DB Plugin V2.1.6

[CTDB TOCID: 72y6FyIwBdMMsB_vo9LUQv9HDgs-] found
Submit result: 72y6FyIwBdMMsB_vo9LUQv9HDgs- has been confirmed
Track | CTDB Status
1 | (4/4) Accurately ripped
2 | (4/4) Accurately ripped
3 | (4/4) Accurately ripped
4 | (4/4) Accurately ripped
5 | (4/4) Accurately ripped


==== Log checksum 4CE0C097DD58C659563EE098E509E52DB130266576E45228C3C00C09E483D34B ====


Hank Mobley, Lee Morgan - Monday Night At Birdland (1958) {2016 Japan SHM-CD Jazz Masters Collection 1200 Series WPCR-29011}

Hank Mobley, Lee Morgan - Monday Night At Birdland (1958) {2016 Japan SHM-CD Jazz Masters Collection 1200 Series WPCR-29011}


NEXT -> Hank Mobley, Billy Root, Curtis Fuller, Lee Morgan - Another Monday Night At Birdland (1958) {2016 Japan SHM-CD Jazz Masters Collection 1200 Series WPCR-29052

see more Japan SHM-CD Jazz Masters Collection 1200 Series…


===